  0
SECTION
  2
HEADER
  9
$ACADVER
  1
AC1021
  9
$DWGCODEPAGE
  3
ANSI_1252
  9
$EXTMAX
 10
2100.0
 20
1485.0
 30
0.0
  9
$EXTMIN
 10
0.0
 20
0.0
 30
0.0
  9
$LIMMIN
 10
0.0
 20
0.0
  9
$LIMMAX
 10
2100.0
 20
1485.0
  9
$VIEWCTR
 10
1050.0
 20
742.5
  9
$VIEWSIZE
 40
1485.0
  9
$CLAYER
  8
0
  9
$LTSCALE
 40
115.5
  9
$CELTYPE
  6
BYLAYER
  9
$DIMSCALE
 40
1.0
  9
$DIMASZ
 40
17.5
  9
$DIMEXO
 40
13.125
  9
$DIMDLI
 40
79.8
  9
$DIMEXE
 40
37.8
  9
$DIMCEN
 40
18.9
  9
$DIMLFAC
 40
1.0
  9
$DIMBLK
  1
_FILLED
  9
$DIMTXT
 40
12.5
  9
$DIMTOL
 70
1
  9
$DIMLIM
 70
0
  9
$DIMTFAC
 40
1.0
  9
$DIMTP
 40
0.05
  9
$DIMTM
 40
0.05
  9
$PDMODE
 70
3
  9
$PDSIZE
 40
0.3125
  9
$HANDSEED
  5
501
  9
$TILEMODE
 70
1
  9
$MEASUREMENT
 70
1
  9
$INSUNITS
 70
4
  0
ENDSEC
  0
SECTION
  2
CLASSES
  0
CLASS
  1
ACDBDICTIONARYWDFLT
  2
AcDbDictionaryWithDefault
  3
AutoCAD 2000
 90
0
 91
1
280
0
281
0
  0
CLASS
  1
ACDBPLACEHOLDER
  2
AcDbPlaceHolder
  3
AutoCAD 2000
 90
0
 91
1
280
0
281
0
  0
CLASS
  1
LAYOUT
  2
AcDbLayout
  3
AutoCAD 2000
 90
0
 91
0
280
0
281
0
  0
ENDSEC
  0
SECTION
  2
TABLES
  0
TABLE
  2
VPORT
  5
8
100
AcDbSymbolTable
 70
2
  0
VPORT
  5
1F4
100
AcDbSymbolTableRecord
100
AcDbViewportTableRecord
  2
*ACTIVE
 70
0
 10
0.0
 20
0.0
 11
1.0
 21
1.0
 12
1050.0
 22
742.5
 13
0.0
 23
0.0
 14
1.0
 24
1.0
 15
0.0
 25
0.0
 16
0.0
 26
0.0
 36
1.0
 17
0.0
 27
0.0
 37
0.0
 40
1485.0
 41
1.4141414141
 42
50.0
 43
0.0
 44
0.0
 50
0.0
 51
0.0
 71
0
 72
100
 73
1
 74
1
 75
0
 76
0
 77
0
 78
0
  0
ENDTAB
  0
TABLE
  2
LTYPE
  5
5
100
AcDbSymbolTable
 70
6
  0
LTYPE
  5
14
100
AcDbSymbolTableRecord
100
AcDbLinetypeTableRecord
  2
BYBLOCK
 70
0
  3

 72
65
 73
0
 40
0.0
  0
LTYPE
  5
15
100
AcDbSymbolTableRecord
100
AcDbLinetypeTableRecord
  2
BYLAYER
 70
0
  3

 72
65
 73
0
 40
0.0
  0
LTYPE
  5
16
100
AcDbSymbolTableRecord
100
AcDbLinetypeTableRecord
  2
CONTINUOUS
 70
64
  3
Solid line
 72
65
 73
0
 40
0.0
  0
LTYPE
  5
1F5
100
AcDbSymbolTableRecord
100
AcDbLinetypeTableRecord
  2
CENTER
 70
64
  3
____ _ ____ _ ____ _ ____ _ ____ _ ____ _ ____
 72
65
 73
4
 40
0.6
 49
0.375
 74
0
 49
-0.075
 74
0
 49
0.075
 74
0
 49
-0.075
 74
0
  0
LTYPE
  5
1F6
100
AcDbSymbolTableRecord
100
AcDbLinetypeTableRecord
  2
HIDDEN
 70
64
  3
- - - - - - - - - - - - - - - - - - - -
 72
65
 73
2
 40
0.2
 49
0.1
 74
0
 49
-0.1
 74
0
  0
LTYPE
  5
1F7
100
AcDbSymbolTableRecord
100
AcDbLinetypeTableRecord
  2
PHANTOM
 70
64
  3
_____ _ _ _____ _ _ _____ _ _ _____
 72
65
 73
6
 40
0.8
 49
0.45
 74
0
 49
-0.05
 74
0
 49
0.1
 74
0
 49
-0.05
 74
0
 49
0.1
 74
0
 49
-0.05
 74
0
  0
LTYPE
  5
1F8
100
AcDbSymbolTableRecord
100
AcDbLinetypeTableRecord
  2
DOT
 70
64
  3
. . . . . . . . . . . . . . . . . . . .
 72
65
 73
2
 40
0.2
 49
0.1
 74
0
 49
-0.1
 74
0
  0
LTYPE
  5
1F9
100
AcDbSymbolTableRecord
100
AcDbLinetypeTableRecord
  2
DASHED
 70
64
  3
- - - - - - - - - - - - - - - - - - - -
 72
65
 73
2
 40
0.2
 49
0.1
 74
0
 49
-0.1
 74
0
  0
ENDTAB
  0
TABLE
  2
LAYER
  5
2
100
AcDbSymbolTable
 70
36
  0
LAYER
  5
10
100
AcDbSymbolTableRecord
100
AcDbLayerTableRecord
  2
0
 70
0
 62
7
  6
CONTINUOUS
370
-3
390
F
  0
LAYER
  5
1FA
100
AcDbSymbolTableRecord
100
AcDbLayerTableRecord
  2
DEFAULT_1
 70
0
 62
7
  6
CENTER
370
-3
390
F
  0
LAYER
  5
1FB
100
AcDbSymbolTableRecord
100
AcDbLayerTableRecord
  2
DEFAULT_2
 70
0
 62
8
  6
HIDDEN
370
-3
390
F
  0
LAYER
  5
1FC
100
AcDbSymbolTableRecord
100
AcDbLayerTableRecord
  2
DEFAULT_3
 70
0
 62
7
  6
PHANTOM
370
-3
390
F
  0
LAYER
  5
1FD
100
AcDbSymbolTableRecord
100
AcDbLayerTableRecord
  2
ANSICHT_3D
 70
0
 62
7
  6
CONTINUOUS
370
-3
390
F
  0
LAYER
  5
1FE
100
AcDbSymbolTableRecord
100
AcDbLayerTableRecord
  2
ANSICHT_LINKS
 70
0
 62
7
  6
CONTINUOUS
370
-3
390
F
  0
LAYER
  5
1FF
100
AcDbSymbolTableRecord
100
AcDbLayerTableRecord
  2
ANSICHT_RECHTS
 70
0
 62
7
  6
CONTINUOUS
370
-3
390
F
  0
LAYER
  5
200
100
AcDbSymbolTableRecord
100
AcDbLayerTableRecord
  2
AUSBLENDEN
 70
0
 62
7
  6
CONTINUOUS
370
-3
390
F
  0
LAYER
  5
201
100
AcDbSymbolTableRecord
100
AcDbLayerTableRecord
  2
BEZUGSACHSEN
 70
0
 62
7
  6
CONTINUOUS
370
-3
390
F
  0
LAYER
  5
202
100
AcDbSymbolTableRecord
100
AcDbLayerTableRecord
  2
BEZUGSEBENEN
 70
0
 62
7
  6
CONTINUOUS
370
-3
390
F
  0
LAYER
  5
203
100
AcDbSymbolTableRecord
100
AcDbLayerTableRecord
  2
BG_STARTBEZUEGE
 70
0
 62
7
  6
CONTINUOUS
370
-3
390
F
  0
LAYER
  5
204
100
AcDbSymbolTableRecord
100
AcDbLayerTableRecord
  2
BOHRUNGEN
 70
0
 62
7
  6
CONTINUOUS
370
-3
390
F
  0
LAYER
  5
205
100
AcDbSymbolTableRecord
100
AcDbLayerTableRecord
  2
FASEN
 70
0
 62
7
  6
CONTINUOUS
370
-3
390
F
  0
LAYER
  5
206
100
AcDbSymbolTableRecord
100
AcDbLayerTableRecord
  2
FLAECHEN
 70
0
 62
7
  6
CONTINUOUS
370
-3
390
F
  0
LAYER
  5
207
100
AcDbSymbolTableRecord
100
AcDbLayerTableRecord
  2
GEWINDE
 70
0
 62
7
  6
CONTINUOUS
370
-3
390
F
  0
LAYER
  5
208
100
AcDbSymbolTableRecord
100
AcDbLayerTableRecord
  2
HILFEN
 70
0
 62
7
  6
CONTINUOUS
370
-3
390
F
  0
LAYER
  5
209
100
AcDbSymbolTableRecord
100
AcDbLayerTableRecord
  2
KOSM_3D
 70
0
 62
7
  6
CONTINUOUS
370
-3
390
F
  0
LAYER
  5
20A
100
AcDbSymbolTableRecord
100
AcDbLayerTableRecord
  2
KOSM_NEW_VIEW10
 70
0
 62
7
  6
CONTINUOUS
370
-3
390
F
  0
LAYER
  5
20B
100
AcDbSymbolTableRecord
100
AcDbLayerTableRecord
  2
KURVEN
 70
0
 62
7
  6
CONTINUOUS
370
-3
390
F
  0
LAYER
  5
20C
100
AcDbSymbolTableRecord
100
AcDbLayerTableRecord
  2
LAY0001
 70
0
 62
7
  6
CONTINUOUS
370
-3
390
F
  0
LAYER
  5
20D
100
AcDbSymbolTableRecord
100
AcDbLayerTableRecord
  2
MOTOR
 70
0
 62
7
  6
CONTINUOUS
370
-3
390
F
  0
LAYER
  5
20E
100
AcDbSymbolTableRecord
100
AcDbLayerTableRecord
  2
PLAZIERUNG
 70
0
 62
7
  6
CONTINUOUS
370
-3
390
F
  0
LAYER
  5
20F
100
AcDbSymbolTableRecord
100
AcDbLayerTableRecord
  2
RUNDUNGEN
 70
0
 62
7
  6
CONTINUOUS
370
-3
390
F
  0
LAYER
  5
210
100
AcDbSymbolTableRecord
100
AcDbLayerTableRecord
  2
STOERK
 70
0
 62
7
  6
CONTINUOUS
370
-3
390
F
  0
LAYER
  5
211
100
AcDbSymbolTableRecord
100
AcDbLayerTableRecord
  2
TEIL_STARTBEZUEGE
 70
0
 62
7
  6
CONTINUOUS
370
-3
390
F
  0
LAYER
  5
212
100
AcDbSymbolTableRecord
100
AcDbLayerTableRecord
  2
XSEC_DATUMS
 70
0
 62
7
  6
CONTINUOUS
370
-3
390
F
  0
LAYER
  5
213
100
AcDbSymbolTableRecord
100
AcDbLayerTableRecord
  2
ZEICHNUNGSBEMASSUNGEN
 70
0
 62
7
  6
CONTINUOUS
370
-3
390
F
  0
LAYER
  5
214
100
AcDbSymbolTableRecord
100
AcDbLayerTableRecord
  2
_2D_DELETED_OBJS
 70
0
 62
7
  6
CONTINUOUS
370
-3
390
F
  0
LAYER
  5
215
100
AcDbSymbolTableRecord
100
AcDbLayerTableRecord
  2
_BLACK_HOLE
 70
0
 62
7
  6
CONTINUOUS
370
-3
390
F
  0
ENDTAB
  0
TABLE
  2
STYLE
  5
3
100
AcDbSymbolTable
 70
1
  0
STYLE
  5
11
100
AcDbSymbolTableRecord
100
AcDbTextStyleTableRecord
  2
STANDARD
 70
0
 40
0.0
 41
0.7
 50
0.0
 71
0
 42
0.2
  3
txt
  4

  0
STYLE
  5
216
100
AcDbSymbolTableRecord
100
AcDbTextStyleTableRecord
  2
TEXTSTYLE_1
 70
0
 40
0.0
 41
0.8
 50
0.0
 71
0
 42
0.2
  3
gdt
  4

  0
STYLE
  5
217
100
AcDbSymbolTableRecord
100
AcDbTextStyleTableRecord
  2
TEXTSTYLE_2
 70
0
 40
0.0
 41
0.7
 50
0.0
 71
0
 42
0.2
  3
gdt
  4

  0
STYLE
  5
218
100
AcDbSymbolTableRecord
100
AcDbTextStyleTableRecord
  2
TEXTSTYLE_3
 70
0
 40
0.0
 41
0.6
 50
0.0
 71
0
 42
0.2
  3
txt
  4

  0
ENDTAB
  0
TABLE
  2
VIEW
  5
6
100
AcDbSymbolTable
 70
0
  0
ENDTAB
  0
TABLE
  2
UCS
  5
7
100
AcDbSymbolTable
 70
0
  0
ENDTAB
  0
TABLE
  2
APPID
  5
9
100
AcDbSymbolTable
 70
1
  0
APPID
  5
219
100
AcDbSymbolTableRecord
100
AcDbRegAppTableRecord
  2
ACAD
 70
0
  0
ENDTAB
  0
TABLE
  2
BLOCK_RECORD
  5
1
100
AcDbSymbolTable
 70
0
  0
BLOCK_RECORD
  5
21A
100
AcDbSymbolTableRecord
100
AcDbBlockTableRecord
  2
*Model_Space
  0
BLOCK_RECORD
  5
21B
100
AcDbSymbolTableRecord
100
AcDbBlockTableRecord
  2
*Paper_Space
  0
BLOCK_RECORD
  5
21C
100
AcDbSymbolTableRecord
100
AcDbBlockTableRecord
  2
_FILLED
  0
BLOCK_RECORD
  5
21D
100
AcDbSymbolTableRecord
100
AcDbBlockTableRecord
  2
_DOTBLANK
  0
BLOCK_RECORD
  5
21E
100
AcDbSymbolTableRecord
100
AcDbBlockTableRecord
  2
*D0
  0
BLOCK_RECORD
  5
21F
100
AcDbSymbolTableRecord
100
AcDbBlockTableRecord
  2
*D1
  0
BLOCK_RECORD
  5
220
100
AcDbSymbolTableRecord
100
AcDbBlockTableRecord
  2
*D2
  0
BLOCK_RECORD
  5
221
100
AcDbSymbolTableRecord
100
AcDbBlockTableRecord
  2
*D3
  0
BLOCK_RECORD
  5
222
100
AcDbSymbolTableRecord
100
AcDbBlockTableRecord
  2
*D4
  0
BLOCK_RECORD
  5
223
100
AcDbSymbolTableRecord
100
AcDbBlockTableRecord
  2
*D5
  0
BLOCK_RECORD
  5
224
100
AcDbSymbolTableRecord
100
AcDbBlockTableRecord
  2
*D6
  0
BLOCK_RECORD
  5
225
100
AcDbSymbolTableRecord
100
AcDbBlockTableRecord
  2
*D7
  0
BLOCK_RECORD
  5
226
100
AcDbSymbolTableRecord
100
AcDbBlockTableRecord
  2
*D8
  0
BLOCK_RECORD
  5
227
100
AcDbSymbolTableRecord
100
AcDbBlockTableRecord
  2
*D9
  0
BLOCK_RECORD
  5
228
100
AcDbSymbolTableRecord
100
AcDbBlockTableRecord
  2
*D10
  0
BLOCK_RECORD
  5
229
100
AcDbSymbolTableRecord
100
AcDbBlockTableRecord
  2
*D11
  0
BLOCK_RECORD
  5
22A
100
AcDbSymbolTableRecord
100
AcDbBlockTableRecord
  2
*D12
  0
BLOCK_RECORD
  5
22B
100
AcDbSymbolTableRecord
100
AcDbBlockTableRecord
  2
*D13
  0
BLOCK_RECORD
  5
22C
100
AcDbSymbolTableRecord
100
AcDbBlockTableRecord
  2
*D14
  0
BLOCK_RECORD
  5
22D
100
AcDbSymbolTableRecord
100
AcDbBlockTableRecord
  2
*D15
  0
BLOCK_RECORD
  5
22E
100
AcDbSymbolTableRecord
100
AcDbBlockTableRecord
  2
*D16
  0
BLOCK_RECORD
  5
22F
100
AcDbSymbolTableRecord
100
AcDbBlockTableRecord
  2
*D17
  0
BLOCK_RECORD
  5
230
100
AcDbSymbolTableRecord
100
AcDbBlockTableRecord
  2
*D18
  0
BLOCK_RECORD
  5
231
100
AcDbSymbolTableRecord
100
AcDbBlockTableRecord
  2
*D19
  0
BLOCK_RECORD
  5
232
100
AcDbSymbolTableRecord
100
AcDbBlockTableRecord
  2
*D20
  0
BLOCK_RECORD
  5
233
100
AcDbSymbolTableRecord
100
AcDbBlockTableRecord
  2
*D21
  0
BLOCK_RECORD
  5
234
100
AcDbSymbolTableRecord
100
AcDbBlockTableRecord
  2
*D22
  0
BLOCK_RECORD
  5
235
100
AcDbSymbolTableRecord
100
AcDbBlockTableRecord
  2
*D23
  0
BLOCK_RECORD
  5
236
100
AcDbSymbolTableRecord
100
AcDbBlockTableRecord
  2
*D24
  0
BLOCK_RECORD
  5
237
100
AcDbSymbolTableRecord
100
AcDbBlockTableRecord
  2
*D25
  0
BLOCK_RECORD
  5
238
100
AcDbSymbolTableRecord
100
AcDbBlockTableRecord
  2
*D26
  0
BLOCK_RECORD
  5
239
100
AcDbSymbolTableRecord
100
AcDbBlockTableRecord
  2
*D27
  0
BLOCK_RECORD
  5
23A
100
AcDbSymbolTableRecord
100
AcDbBlockTableRecord
  2
*D28
  0
BLOCK_RECORD
  5
23B
100
AcDbSymbolTableRecord
100
AcDbBlockTableRecord
  2
SYMBOL_70_BL3
  0
BLOCK_RECORD
  5
23C
100
AcDbSymbolTableRecord
100
AcDbBlockTableRecord
  2
SYMBOL_47_BL2
  0
BLOCK_RECORD
  5
23D
100
AcDbSymbolTableRecord
100
AcDbBlockTableRecord
  2
SYMBOL_38_BL1
  0
BLOCK_RECORD
  5
23E
100
AcDbSymbolTableRecord
100
AcDbBlockTableRecord
  2
SYMBOL_64_BL0
  0
ENDTAB
  0
TABLE
  2
DIMSTYLE
  5
A
100
AcDbSymbolTable
 70
1
100
AcDbDimStyleTable
 71
0
  0
DIMSTYLE
105
23F
100
AcDbSymbolTableRecord
100
AcDbDimStyleTableRecord
  2
STANDARD
 70
0
  3

  4

 40
1.0
 41
17.5
 42
0.0625
 43
0.38
 44
0.18
 45
0.0
 46
0.0
 47
0.05
 48
0.05
140
12.5
141
0.09
142
0.0
143
25.4
144
1.0
145
0.0
146
1.0
147
0.09
 71
1.0
 72
0.0
 73
0
 74
0
 75
0
 76
0
 77
1
 78
8
170
0
171
2
172
0
173
0
174
0
175
0
176
0
177
0
178
5
270
2
271
2
272
2
273
2
274
2
275
0
280
0
281
0
282
0
283
1
284
8
285
0
286
0
287
3
288
0
340
11
341
21C
342
21C
343
21C
344
21C
  0
DIMSTYLE
105
240
100
AcDbSymbolTableRecord
100
AcDbDimStyleTableRecord
  2
DIMSTYLE_1
 70
0
  3

  4

 40
1.0
 41
17.5
 42
0.0625
 43
0.38
 44
0.18
 45
0.0
 46
0.0
 47
0.5
 48
0.5
140
12.5
141
0.09
142
0.0
143
25.4
144
1.0
145
0.0
146
1.0
147
0.09
 71
0.0
 72
0.0
 73
0
 74
0
 75
0
 76
0
 77
1
 78
8
170
0
171
2
172
0
173
0
174
0
175
0
176
0
177
0
178
5
270
2
271
3
272
3
273
2
274
2
275
0
280
0
281
0
282
0
283
1
284
8
285
0
286
0
287
3
288
0
340
11
341
21C
342
21C
343
21C
344
21C
  0
DIMSTYLE
105
241
100
AcDbSymbolTableRecord
100
AcDbDimStyleTableRecord
  2
DIMSTYLE_2
 70
0
  3

  4

 40
1.0
 41
17.5
 42
0.0625
 43
0.38
 44
0.18
 45
0.0
 46
0.0
 47
0.3
 48
0.3
140
12.5
141
0.09
142
0.0
143
25.4
144
1.0
145
0.0
146
1.0
147
0.09
 71
0.0
 72
0.0
 73
0
 74
0
 75
0
 76
0
 77
1
 78
8
170
0
171
2
172
0
173
0
174
0
175
0
176
0
177
0
178
5
270
2
271
3
272
3
273
2
274
2
275
0
280
0
281
0
282
0
283
1
284
8
285
0
286
0
287
3
288
0
340
11
341
21C
342
21C
343
21C
344
21C
  0
DIMSTYLE
105
242
100
AcDbSymbolTableRecord
100
AcDbDimStyleTableRecord
  2
DIMSTYLE_3
 70
0
  3

  4

 40
1.0
 41
17.5
 42
0.0625
 43
0.38
 44
0.18
 45
0.0
 46
0.0
 47
0.5
 48
0.5
140
12.5
141
0.09
142
0.0
143
25.4
144
1.0
145
0.0
146
1.0
147
0.09
 71
0.0
 72
0.0
 73
0
 74
0
 75
0
 76
0
 77
1
 78
8
170
0
171
2
172
0
173
0
174
0
175
0
176
0
177
0
178
5
270
2
271
2
272
2
273
2
274
2
275
0
280
0
281
0
282
0
283
1
284
8
285
0
286
0
287
3
288
0
340
11
341
21C
342
21C
343
21C
344
21C
  0
DIMSTYLE
105
243
100
AcDbSymbolTableRecord
100
AcDbDimStyleTableRecord
  2
DIMSTYLE_4
 70
0
  3

  4

 40
1.0
 41
17.5
 42
0.0625
 43
0.38
 44
0.18
 45
0.0
 46
0.0
 47
0.5
 48
0.5
140
12.5
141
0.09
142
0.0
143
25.4
144
1.0
145
0.0
146
1.0
147
0.09
 71
0.0
 72
0.0
 73
0
 74
0
 75
0
 76
0
 77
1
 78
8
170
0
171
2
172
0
173
0
174
0
175
0
176
0
177
0
178
5
270
2
271
2
272
2
273
2
274
2
275
0
280
0
281
0
282
0
283
1
284
8
285
0
286
0
287
3
288
0
340
11
341
21C
342
21C
343
21C
344
21C
  0
DIMSTYLE
105
244
100
AcDbSymbolTableRecord
100
AcDbDimStyleTableRecord
  2
DIMSTYLE_5
 70
0
  3

  4

 40
1.0
 41
17.5
 42
0.0625
 43
0.38
 44
0.18
 45
0.0
 46
0.0
 47
0.2
 48
0.2
140
12.5
141
0.09
142
0.0
143
25.4
144
1.0
145
0.0
146
1.0
147
0.09
 71
0.0
 72
0.0
 73
0
 74
0
 75
0
 76
0
 77
1
 78
8
170
0
171
2
172
0
173
0
174
0
175
0
176
0
177
0
178
5
270
2
271
3
272
3
273
2
274
2
275
0
280
0
281
0
282
0
283
1
284
8
285
0
286
0
287
3
288
0
340
11
341
21C
342
21C
343
21C
344
21C
  0
DIMSTYLE
105
245
100
AcDbSymbolTableRecord
100
AcDbDimStyleTableRecord
  2
DIMSTYLE_6
 70
0
  3

  4

 40
1.0
 41
17.5
 42
0.0625
 43
0.38
 44
0.18
 45
0.0
 46
0.0
 47
-0.01
 48
0.04
140
12.5
141
0.09
142
0.0
143
25.4
144
1.0
145
0.0
146
1.0
147
0.09
 71
0.0
 72
0.0
 73
0
 74
0
 75
0
 76
0
 77
1
 78
8
170
0
171
2
172
0
173
0
174
0
175
0
176
0
177
0
178
5
270
2
271
2
272
2
273
2
274
2
275
0
280
0
281
0
282
0
283
1
284
8
285
0
286
0
287
3
288
0
340
11
341
21C
342
21C
343
21C
344
21C
  0
DIMSTYLE
105
246
100
AcDbSymbolTableRecord
100
AcDbDimStyleTableRecord
  2
DIMSTYLE_7
 70
0
  3

  4

 40
1.0
 41
17.5
 42
0.0625
 43
0.38
 44
0.18
 45
0.0
 46
0.0
 47
0.0
 48
3.0
140
12.5
141
0.09
142
0.0
143
25.4
144
1.0
145
0.0
146
0.6
147
0.09
 71
1.0
 72
0.0
 73
0
 74
0
 75
0
 76
0
 77
1
 78
8
170
0
171
2
172
0
173
0
174
0
175
0
176
0
177
0
178
5
270
2
271
2
272
2
273
2
274
2
275
0
280
0
281
0
282
0
283
1
284
8
285
0
286
0
287
3
288
0
340
11
341
21C
342
21C
343
21C
344
21C
  0
DIMSTYLE
105
247
100
AcDbSymbolTableRecord
100
AcDbDimStyleTableRecord
  2
DIMSTYLE_8
 70
0
  3

  4

 40
1.0
 41
17.5
 42
0.0625
 43
0.38
 44
0.18
 45
0.0
 46
0.0
 47
0.001
 48
0.001
140
12.5
141
0.09
142
0.0
143
25.4
144
1.0
145
0.0
146
1.0
147
0.09
 71
0.0
 72
0.0
 73
0
 74
0
 75
0
 76
0
 77
1
 78
8
170
0
171
2
172
0
173
0
174
0
175
0
176
0
177
0
178
5
270
2
271
3
272
3
273
2
274
2
275
0
280
0
281
0
282
0
283
1
284
8
285
0
286
0
287
3
288
0
340
11
341
21C
342
21C
343
21C
344
21C
  0
DIMSTYLE
105
248
100
AcDbSymbolTableRecord
100
AcDbDimStyleTableRecord
  2
DIMSTYLE_9
 70
0
  3

  4

 40
1.0
 41
17.5
 42
0.0625
 43
0.38
 44
0.18
 45
0.0
 46
0.0
 47
0.3
 48
0.3
140
12.5
141
0.09
142
0.0
143
25.4
144
1.0
145
0.0
146
1.0
147
0.09
 71
0.0
 72
0.0
 73
0
 74
0
 75
0
 76
0
 77
1
 78
8
170
0
171
2
172
0
173
0
174
0
175
0
176
0
177
0
178
5
270
2
271
2
272
2
273
2
274
2
275
0
280
0
281
0
282
0
283
1
284
8
285
0
286
0
287
3
288
0
340
11
341
21C
342
21C
343
21C
344
21C
  0
DIMSTYLE
105
249
100
AcDbSymbolTableRecord
100
AcDbDimStyleTableRecord
  2
DIMSTYLE_10
 70
0
  3

  4

 40
1.0
 41
17.5
 42
0.0625
 43
0.38
 44
0.18
 45
0.0
 46
0.0
 47
0.2
 48
0.2
140
12.5
141
0.09
142
0.0
143
25.4
144
1.0
145
0.0
146
1.0
147
0.09
 71
0.0
 72
0.0
 73
0
 74
0
 75
0
 76
0
 77
1
 78
8
170
0
171
2
172
0
173
0
174
0
175
0
176
0
177
0
178
5
270
2
271
2
272
2
273
2
274
2
275
0
280
0
281
0
282
0
283
1
284
8
285
0
286
0
287
3
288
0
340
11
341
21C
342
21C
343
21C
344
21C
  0
DIMSTYLE
105
24A
100
AcDbSymbolTableRecord
100
AcDbDimStyleTableRecord
  2
DIMSTYLE_11
 70
0
  3

  4

 40
1.0
 41
17.5
 42
0.0625
 43
0.38
 44
0.18
 45
0.0
 46
0.0
 47
0.5
 48
0.5
140
12.5
141
0.09
142
0.0
143
25.4
144
1.0
145
0.0
146
1.0
147
0.09
 71
0.0
 72
0.0
 73
0
 74
0
 75
0
 76
0
 77
1
 78
8
170
0
171
2
172
0
173
0
174
0
175
0
176
0
177
0
178
5
270
2
271
1
272
1
273
2
274
2
275
0
280
0
281
0
282
0
283
1
284
8
285
0
286
0
287
3
288
0
340
11
341
21C
342
21C
343
21C
344
21C
  0
DIMSTYLE
105
24B
100
AcDbSymbolTableRecord
100
AcDbDimStyleTableRecord
  2
DIMSTYLE_12
 70
0
  3

  4

 40
1.0
 41
17.5
 42
0.0625
 43
0.38
 44
0.18
 45
0.0
 46
0.0
 47
0.3
 48
0.3000000003
140
12.5
141
0.09
142
0.0
143
25.4
144
1.0
145
0.0
146
0.6
147
0.09
 71
1.0
 72
0.0
 73
0
 74
0
 75
0
 76
0
 77
1
 78
8
170
0
171
2
172
0
173
0
174
0
175
0
176
0
177
0
178
5
270
2
271
2
272
2
273
2
274
2
275
0
280
0
281
0
282
0
283
1
284
8
285
0
286
0
287
3
288
0
340
11
341
21C
342
21C
343
21C
344
21C
  0
DIMSTYLE
105
24C
100
AcDbSymbolTableRecord
100
AcDbDimStyleTableRecord
  2
DIMSTYLE_13
 70
0
  3

  4

 40
1.0
 41
17.5
 42
0.0625
 43
0.38
 44
0.18
 45
0.0
 46
0.0
 47
0.5
 48
0.5
140
12.5
141
0.09
142
0.0
143
25.4
144
1.0
145
0.0
146
1.0
147
0.09
 71
0.0
 72
0.0
 73
0
 74
0
 75
0
 76
0
 77
1
 78
8
170
0
171
2
172
0
173
0
174
0
175
0
176
0
177
0
178
5
270
2
271
3
272
3
273
2
274
2
275
0
280
0
281
0
282
0
283
1
284
8
285
0
286
0
287
3
288
0
340
11
341
21C
342
21C
343
21C
344
21C
  0
ENDTAB
  0
ENDSEC
  0
SECTION
  2
BLOCKS
  0
BLOCK
  5
20
100
AcDbEntity
  8
0
100
AcDbBlockBegin
  2
*Model_Space
 70
0
 10
0.0
 20
0.0
 30
0.0
  3
*Model_Space
  1

  0
ENDBLK
  5
21
100
AcDbEntity
  8
0
100
AcDbBlockEnd
  0
BLOCK
  5
1C
100
AcDbEntity
  8
0
100
AcDbBlockBegin
  2
*Paper_Space
 70
0
 10
0.0
 20
0.0
 30
0.0
  3
*Paper_Space
  1

  0
ENDBLK
  5
1D
100
AcDbEntity
  8
0
100
AcDbBlockEnd
  0
BLOCK
  5
24D
100
AcDbEntity
  8
0
100
AcDbBlockBegin
 62
2
  6
CONTINUOUS
  2
SYMBOL_70_BL3
 70
64
 10
1121.8293319903
 20
870.6812558272
  3
SYMBOL_70_BL3
  1

  0
LINE
  5
24E
100
AcDbEntity
  8
0
100
AcDbLine
 62
2
  6
CONTINUOUS
 10
1090.5793319903
 20
878.2091442734
 11
1090.5793319903
 21
863.2091442734
  0
LINE
  5
24F
100
AcDbEntity
  8
0
100
AcDbLine
 62
2
  6
CONTINUOUS
 10
1090.5793319903
 20
878.1812558272
 11
1103.0793319903
 21
870.6812558272
  0
LINE
  5
250
100
AcDbEntity
  8
0
100
AcDbLine
 62
2
  6
CONTINUOUS
 10
1103.0793319903
 20
870.6812558272
 11
1090.5793319903
 21
863.1812558272
  0
LINE
  5
251
100
AcDbEntity
  8
0
100
AcDbLine
 62
2
  6
CONTINUOUS
 10
1103.0793319903
 20
870.6812558272
 11
1118.0793319903
 21
870.6812558272
  0
LINE
  5
252
100
AcDbEntity
  8
0
100
AcDbLine
 62
2
  6
CONTINUOUS
 10
1118.0793319903
 20
888.1812558272
 11
1118.0793319903
 21
853.1812558272
  0
LINE
  5
253
100
AcDbEntity
  8
0
100
AcDbLine
 62
2
  6
CONTINUOUS
 10
1118.0793319903
 20
853.1812558272
 11
1153.0793319903
 21
853.1812558272
  0
LINE
  5
254
100
AcDbEntity
  8
0
100
AcDbLine
 62
2
  6
CONTINUOUS
 10
1153.0793319903
 20
853.1812558272
 11
1153.0793319903
 21
888.1812558272
  0
LINE
  5
255
100
AcDbEntity
  8
0
100
AcDbLine
 62
2
  6
CONTINUOUS
 10
1153.0793319903
 20
888.1812558272
 11
1118.0793319903
 21
888.1812558272
  0
LINE
  5
256
100
AcDbEntity
  8
0
100
AcDbLine
 62
2
  6
CONTINUOUS
 10
1090.5793319903
 20
863.6952000503
 11
1091.4359056955
 21
863.6952000503
  0
LINE
  5
257
100
AcDbEntity
  8
0
100
AcDbLine
 62
2
  6
CONTINUOUS
 10
1090.5793319903
 20
864.1952000503
 11
1092.2692390288
 21
864.1952000503
  0
LINE
  5
258
100
AcDbEntity
  8
0
100
AcDbLine
 62
2
  6
CONTINUOUS
 10
1090.5793319903
 20
864.6952000503
 11
1093.1025723621
 21
864.6952000503
  0
LINE
  5
259
100
AcDbEntity
  8
0
100
AcDbLine
 62
2
  6
CONTINUOUS
 10
1090.5793319903
 20
865.1952000503
 11
1093.9359056955
 21
865.1952000503
  0
LINE
  5
25A
100
AcDbEntity
  8
0
100
AcDbLine
 62
2
  6
CONTINUOUS
 10
1090.5793319903
 20
865.6952000503
 11
1094.7692390288
 21
865.6952000503
  0
LINE
  5
25B
100
AcDbEntity
  8
0
100
AcDbLine
 62
2
  6
CONTINUOUS
 10
1090.5793319903
 20
866.1952000503
 11
1095.6025723621
 21
866.1952000503
  0
LINE
  5
25C
100
AcDbEntity
  8
0
100
AcDbLine
 62
2
  6
CONTINUOUS
 10
1090.5793319903
 20
866.6952000503
 11
1096.4359056955
 21
866.6952000503
  0
LINE
  5
25D
100
AcDbEntity
  8
0
100
AcDbLine
 62
2
  6
CONTINUOUS
 10
1090.5793319903
 20
867.1952000503
 11
1097.2692390288
 21
867.1952000503
  0
LINE
  5
25E
100
AcDbEntity
  8
0
100
AcDbLine
 62
2
  6
CONTINUOUS
 10
1090.5793319903
 20
867.6952000503
 11
1098.1025723621
 21
867.6952000503
  0
LINE
  5
25F
100
AcDbEntity
  8
0
100
AcDbLine
 62
2
  6
CONTINUOUS
 10
1090.5793319903
 20
868.1952000503
 11
1098.9359056955
 21
868.1952000503
  0
LINE
  5
260
100
AcDbEntity
  8
0
100
AcDbLine
 62
2
  6
CONTINUOUS
 10
1090.5793319903
 20
868.6952000503
 11
1099.7692390288
 21
868.6952000503
  0
LINE
  5
261
100
AcDbEntity
  8
0
100
AcDbLine
 62
2
  6
CONTINUOUS
 10
1090.5793319903
 20
869.1952000503
 11
1100.6025723621
 21
869.1952000503
  0
LINE
  5
262
100
AcDbEntity
  8
0
100
AcDbLine
 62
2
  6
CONTINUOUS
 10
1090.5793319903
 20
869.6952000503
 11
1101.4359056955
 21
869.6952000503
  0
LINE
  5
263
100
AcDbEntity
  8
0
100
AcDbLine
 62
2
  6
CONTINUOUS
 10
1090.5793319903
 20
870.1952000503
 11
1102.2692390288
 21
870.1952000503
  0
LINE
  5
264
100
AcDbEntity
  8
0
100
AcDbLine
 62
2
  6
CONTINUOUS
 10
1090.5793319903
 20
870.6952000503
 11
1103.0560916184
 21
870.6952000503
  0
LINE
  5
265
100
AcDbEntity
  8
0
100
AcDbLine
 62
2
  6
CONTINUOUS
 10
1090.5793319903
 20
871.1952000503
 11
1102.2227582851
 21
871.1952000503
  0
LINE
  5
266
100
AcDbEntity
  8
0
100
AcDbLine
 62
2
  6
CONTINUOUS
 10
1090.5793319903
 20
871.6952000503
 11
1101.3894249518
 21
871.6952000503
  0
LINE
  5
267
100
AcDbEntity
  8
0
100
AcDbLine
 62
2
  6
CONTINUOUS
 10
1090.5793319903
 20
872.1952000503
 11
1100.5560916184
 21
872.1952000503
  0
LINE
  5
268
100
AcDbEntity
  8
0
100
AcDbLine
 62
2
  6
CONTINUOUS
 10
1090.5793319903
 20
872.6952000503
 11
1099.7227582851
 21
872.6952000503
  0
LINE
  5
269
100
AcDbEntity
  8
0
100
AcDbLine
 62
2
  6
CONTINUOUS
 10
1090.5793319903
 20
873.1952000503
 11
1098.8894249518
 21
873.1952000503
  0
LINE
  5
26A
100
AcDbEntity
  8
0
100
AcDbLine
 62
2
  6
CONTINUOUS
 10
1090.5793319903
 20
873.6952000503
 11
1098.0560916184
 21
873.6952000503
  0
LINE
  5
26B
100
AcDbEntity
  8
0
100
AcDbLine
 62
2
  6
CONTINUOUS
 10
1090.5793319903
 20
874.1952000503
 11
1097.2227582851
 21
874.1952000503
  0
LINE
  5
26C
100
AcDbEntity
  8
0
100
AcDbLine
 62
2
  6
CONTINUOUS
 10
1090.5793319903
 20
874.6952000503
 11
1096.3894249518
 21
874.6952000503
  0
LINE
  5
26D
100
AcDbEntity
  8
0
100
AcDbLine
 62
2
  6
CONTINUOUS
 10
1090.5793319903
 20
875.1952000503
 11
1095.5560916184
 21
875.1952000503
  0
LINE
  5
26E
100
AcDbEntity
  8
0
100
AcDbLine
 62
2
  6
CONTINUOUS
 10
1090.5793319903
 20
875.6952000503
 11
1094.7227582851
 21
875.6952000503
  0
LINE
  5
26F
100
AcDbEntity
  8
0
100
AcDbLine
 62
2
  6
CONTINUOUS
 10
1090.5793319903
 20
876.1952000503
 11
1093.8894249518
 21
876.1952000503
  0
LINE
  5
270
100
AcDbEntity
  8
0
100
AcDbLine
 62
2
  6
CONTINUOUS
 10
1090.5793319903
 20
876.6952000503
 11
1093.0560916184
 21
876.6952000503
  0
LINE
  5
271
100
AcDbEntity
  8
0
100
AcDbLine
 62
2
  6
CONTINUOUS
 10
1090.5793319903
 20
877.1952000503
 11
1092.2227582851
 21
877.1952000503
  0
LINE
  5
272
100
AcDbEntity
  8
0
100
AcDbLine
 62
2
  6
CONTINUOUS
 10
1090.5793319903
 20
877.6952000503
 11
1091.3894249518
 21
877.6952000503
  0
ENDBLK
  5
273
100
AcDbEntity
  8
0
  6
BYBLOCK
 62
0
100
AcDbBlockEnd
  0
BLOCK
  5
274
100
AcDbEntity
  8
0
100
AcDbBlockBegin
 62
2
  6
CONTINUOUS
  2
SYMBOL_47_BL2
 70
64
 10
1356.9510261439
 20
1156.8015240848
  3
SYMBOL_47_BL2
  1

  0
LINE
  5
275
100
AcDbEntity
  8
0
100
AcDbLine
 62
2
  6
CONTINUOUS
 10
1276.9510466137
 20
1174.3119884405
 11
1276.9510466137
 21
1139.3120002961
  0
LINE
  5
276
100
AcDbEntity
  8
0
100
AcDbLine
 62
2
  6
CONTINUOUS
 10
1276.9510466137
 20
1139.3120002961
 11
1386.9510093533
 21
1139.3120002961
  0
LINE
  5
277
100
AcDbEntity
  8
0
100
AcDbLine
 62
2
  6
CONTINUOUS
 10
1412.6604373284
 20
1139.2172648259
 11
1412.6604373284
 21
1174.3857833438
  0
LINE
  5
278
100
AcDbEntity
  8
0
100
AcDbLine
 62
2
  6
CONTINUOUS
 10
1386.9510093533
 20
1174.3119884405
 11
1276.9510466137
 21
1174.3119884405
  0
LINE
  5
279
100
AcDbEntity
  8
0
100
AcDbLine
 62
2
  6
CONTINUOUS
 10
1311.9510347581
 20
1174.3119884405
 11
1311.9510347581
 21
1139.3120002961
  0
LINE
  5
27A
100
AcDbEntity
  8
0
100
AcDbLine
 62
2
  6
CONTINUOUS
 10
1386.9510093533
 20
1174.3119884405
 11
1386.9510093533
 21
1139.3120002961
  0
LINE
  5
27B
100
AcDbEntity
  8
0
100
AcDbLine
 62
2
  6
CONTINUOUS
 10
1386.9510093533
 20
1174.3119884405
 11
1436.8453945074
 21
1174.3857833438
  0
LINE
  5
27C
100
AcDbEntity
  8
0
100
AcDbLine
 62
2
  6
CONTINUOUS
 10
1386.8913126486
 20
1139.1116536592
 11
1436.9510056741
 21
1139.2172648259
  0
LINE
  5
27D
100
AcDbEntity
  8
0
100
AcDbLine
 62
2
  6
CONTINUOUS
 10
1436.8453945074
 20
1139.3228759926
 11
1436.8453945074
 21
1174.4913945105
  0
TEXT
  5
27E
100
AcDbEntity
  8
0
100
AcDbText
 62
5
  6
CONTINUOUS
 10
1284.293737318
 20
1151.6994500717
  7
TEXTSTYLE_2
 40
12.000000384
  1
h
 41
1.0
 72
0
100
AcDbText
  0
ENDBLK
  5
27F
100
AcDbEntity
  8
0
  6
BYBLOCK
 62
0
100
AcDbBlockEnd
  0
BLOCK
  5
280
100
AcDbEntity
  8
0
100
AcDbBlockBegin
 62
2
  6
CONTINUOUS
  2
SYMBOL_38_BL1
 70
64
 10
1375.5793319903
 20
1082.7745157661
  3
SYMBOL_38_BL1
  1

  0
LINE
  5
281
100
AcDbEntity
  8
0
100
AcDbLine
 62
2
  6
CONTINUOUS
 10
1383.0932762134
 20
1051.5245157661
 11
1368.0932762134
 21
1051.5245157661
  0
LINE
  5
282
100
AcDbEntity
  8
0
100
AcDbLine
 62
2
  6
CONTINUOUS
 10
1358.0793319903
 20
1114.0245157661
 11
1393.0793319903
 21
1114.0245157661
  0
LINE
  5
283
100
AcDbEntity
  8
0
100
AcDbLine
 62
2
  6
CONTINUOUS
 10
1393.0793319903
 20
1114.0245157661
 11
1393.0793319903
 21
1079.0245157661
  0
LINE
  5
284
100
AcDbEntity
  8
0
100
AcDbLine
 62
2
  6
CONTINUOUS
 10
1393.0793319903
 20
1079.0245157661
 11
1358.0793319903
 21
1079.0245157661
  0
LINE
  5
285
100
AcDbEntity
  8
0
100
AcDbLine
 62
2
  6
CONTINUOUS
 10
1358.0793319903
 20
1079.0245157661
 11
1358.0793319903
 21
1114.0245157661
  0
LINE
  5
286
100
AcDbEntity
  8
0
100
AcDbLine
 62
2
  6
CONTINUOUS
 10
1368.0653877672
 20
1051.5245157661
 11
1375.5793319903
 21
1064.0245157661
  0
LINE
  5
287
100
AcDbEntity
  8
0
100
AcDbLine
 62
2
  6
CONTINUOUS
 10
1375.5793319903
 20
1064.0245157661
 11
1383.0653877672
 21
1051.5245157661
  0
LINE
  5
288
100
AcDbEntity
  8
0
100
AcDbLine
 62
2
  6
CONTINUOUS
 10
1375.5793319903
 20
1064.0245157661
 11
1375.5793319903
 21
1079.0245157661
  0
LINE
  5
289
100
AcDbEntity
  8
0
100
AcDbLine
 62
2
  6
CONTINUOUS
 10
1368.5793319903
 20
1051.5245157661
 11
1368.5793319903
 21
1052.3794998594
  0
LINE
  5
28A
100
AcDbEntity
  8
0
100
AcDbLine
 62
2
  6
CONTINUOUS
 10
1369.0793319903
 20
1051.5245157661
 11
1369.0793319903
 21
1053.2112867099
  0
LINE
  5
28B
100
AcDbEntity
  8
0
100
AcDbLine
 62
2
  6
CONTINUOUS
 10
1369.5793319903
 20
1051.5245157661
 11
1369.5793319903
 21
1054.0430735603
  0
LINE
  5
28C
100
AcDbEntity
  8
0
100
AcDbLine
 62
2
  6
CONTINUOUS
 10
1370.0793319903
 20
1051.5245157661
 11
1370.0793319903
 21
1054.8748604108
  0
LINE
  5
28D
100
AcDbEntity
  8
0
100
AcDbLine
 62
2
  6
CONTINUOUS
 10
1370.5793319903
 20
1051.5245157661
 11
1370.5793319903
 21
1055.7066472613
  0
LINE
  5
28E
100
AcDbEntity
  8
0
100
AcDbLine
 62
2
  6
CONTINUOUS
 10
1371.0793319903
 20
1051.5245157661
 11
1371.0793319903
 21
1056.5384341118
  0
LINE
  5
28F
100
AcDbEntity
  8
0
100
AcDbLine
 62
2
  6
CONTINUOUS
 10
1371.5793319903
 20
1051.5245157661
 11
1371.5793319903
 21
1057.3702209623
  0
LINE
  5
290
100
AcDbEntity
  8
0
100
AcDbLine
 62
2
  6
CONTINUOUS
 10
1372.0793319903
 20
1051.5245157661
 11
1372.0793319903
 21
1058.2020078127
  0
LINE
  5
291
100
AcDbEntity
  8
0
100
AcDbLine
 62
2
  6
CONTINUOUS
 10
1372.5793319903
 20
1051.5245157661
 11
1372.5793319903
 21
1059.0337946632
  0
LINE
  5
292
100
AcDbEntity
  8
0
100
AcDbLine
 62
2
  6
CONTINUOUS
 10
1373.0793319903
 20
1051.5245157661
 11
1373.0793319903
 21
1059.8655815137
  0
LINE
  5
293
100
AcDbEntity
  8
0
100
AcDbLine
 62
2
  6
CONTINUOUS
 10
1373.5793319903
 20
1051.5245157661
 11
1373.5793319903
 21
1060.6973683642
  0
LINE
  5
294
100
AcDbEntity
  8
0
100
AcDbLine
 62
2
  6
CONTINUOUS
 10
1374.0793319903
 20
1051.5245157661
 11
1374.0793319903
 21
1061.5291552146
  0
LINE
  5
295
100
AcDbEntity
  8
0
100
AcDbLine
 62
2
  6
CONTINUOUS
 10
1374.5793319903
 20
1051.5245157661
 11
1374.5793319903
 21
1062.3609420651
  0
LINE
  5
296
100
AcDbEntity
  8
0
100
AcDbLine
 62
2
  6
CONTINUOUS
 10
1375.0793319903
 20
1051.5245157661
 11
1375.0793319903
 21
1063.1927289156
  0
LINE
  5
297
100
AcDbEntity
  8
0
100
AcDbLine
 62
2
  6
CONTINUOUS
 10
1375.5793319903
 20
1051.5245157661
 11
1375.5793319903
 21
1064.0245157661
  0
LINE
  5
298
100
AcDbEntity
  8
0
100
AcDbLine
 62
2
  6
CONTINUOUS
 10
1376.0793319903
 20
1051.5245157661
 11
1376.0793319903
 21
1063.1896301886
  0
LINE
  5
299
100
AcDbEntity
  8
0
100
AcDbLine
 62
2
  6
CONTINUOUS
 10
1376.5793319903
 20
1051.5245157661
 11
1376.5793319903
 21
1062.3547446112
  0
LINE
  5
29A
100
AcDbEntity
  8
0
100
AcDbLine
 62
2
  6
CONTINUOUS
 10
1377.0793319903
 20
1051.5245157661
 11
1377.0793319903
 21
1061.5198590338
  0
LINE
  5
29B
100
AcDbEntity
  8
0
100
AcDbLine
 62
2
  6
CONTINUOUS
 10
1377.5793319903
 20
1051.5245157661
 11
1377.5793319903
 21
1060.6849734563
  0
LINE
  5
29C
100
AcDbEntity
  8
0
100
AcDbLine
 62
2
  6
CONTINUOUS
 10
1378.0793319903
 20
1051.5245157661
 11
1378.0793319903
 21
1059.8500878789
  0
LINE
  5
29D
100
AcDbEntity
  8
0
100
AcDbLine
 62
2
  6
CONTINUOUS
 10
1378.5793319903
 20
1051.5245157661
 11
1378.5793319903
 21
1059.0152023015
  0
LINE
  5
29E
100
AcDbEntity
  8
0
100
AcDbLine
 62
2
  6
CONTINUOUS
 10
1379.0793319903
 20
1051.5245157661
 11
1379.0793319903
 21
1058.180316724
  0
LINE
  5
29F
100
AcDbEntity
  8
0
100
AcDbLine
 62
2
  6
CONTINUOUS
 10
1379.5793319903
 20
1051.5245157661
 11
1379.5793319903
 21
1057.3454311466
  0
LINE
  5
2A0
100
AcDbEntity
  8
0
100
AcDbLine
 62
2
  6
CONTINUOUS
 10
1380.0793319903
 20
1051.5245157661
 11
1380.0793319903
 21
1056.5105455692
  0
LINE
  5
2A1
100
AcDbEntity
  8
0
100
AcDbLine
 62
2
  6
CONTINUOUS
 10
1380.5793319903
 20
1051.5245157661
 11
1380.5793319903
 21
1055.6756599917
  0
LINE
  5
2A2
100
AcDbEntity
  8
0
100
AcDbLine
 62
2
  6
CONTINUOUS
 10
1381.0793319903
 20
1051.5245157661
 11
1381.0793319903
 21
1054.8407744143
  0
LINE
  5
2A3
100
AcDbEntity
  8
0
100
AcDbLine
 62
2
  6
CONTINUOUS
 10
1381.5793319903
 20
1051.5245157661
 11
1381.5793319903
 21
1054.0058888369
  0
LINE
  5
2A4
100
AcDbEntity
  8
0
100
AcDbLine
 62
2
  6
CONTINUOUS
 10
1382.0793319903
 20
1051.5245157661
 11
1382.0793319903
 21
1053.1710032594
  0
LINE
  5
2A5
100
AcDbEntity
  8
0
100
AcDbLine
 62
2
  6
CONTINUOUS
 10
1382.5793319903
 20
1051.5245157661
 11
1382.5793319903
 21
1052.336117682
  0
ENDBLK
  5
2A6
100
AcDbEntity
  8
0
  6
BYBLOCK
 62
0
100
AcDbBlockEnd
  0
BLOCK
  5
2A7
100
AcDbEntity
  8
0
100
AcDbBlockBegin
 62
2
  6
CONTINUOUS
  2
SYMBOL_64_BL0
 70
64
 10
1290.8486994308
 20
839.2305619768
  3
SYMBOL_64_BL0
  1

  0
TEXT
  5
2A8
100
AcDbEntity
  8
0
100
AcDbText
 62
5
  6
CONTINUOUS
 10
1257.2772708593
 20
831.7305619768
  7
TEXTSTYLE_2
 40
15.0
  1
n
 41
1.0
 72
0
100
AcDbText
  0
TEXT
  5
2A9
100
AcDbEntity
  8
0
100
AcDbText
 62
5
  6
CONTINUOUS
 10
1277.2772708593
 20
831.7305619768
  7
STANDARD
 40
15.0
  1
    
 41
0.7857142857
 72
0
100
AcDbText
  0
TEXT
  5
2AA
100
AcDbEntity
  8
0
100
AcDbText
 62
5
  6
CONTINUOUS
 10
1221.3486994308
 20
833.2305619768
  7
TEXTSTYLE_2
 40
12.0
  1
b
 41
1.0
 72
0
100
AcDbText
  0
LINE
  5
2AB
100
AcDbEntity
  8
0
100
AcDbLine
 62
2
  6
CONTINUOUS
 10
1218.3486994308
 20
856.7305619768
 11
1218.3486994308
 21
821.7305619768
  0
LINE
  5
2AC
100
AcDbEntity
  8
0
100
AcDbLine
 62
2
  6
CONTINUOUS
 10
1218.3486994308
 20
821.7305619768
 11
1328.3486994308
 21
821.7305619768
  0
LINE
  5
2AD
100
AcDbEntity
  8
0
100
AcDbLine
 62
2
  6
CONTINUOUS
 10
1363.3486994308
 20
821.7305619768
 11
1363.3486994308
 21
856.7305619768
  0
LINE
  5
2AE
100
AcDbEntity
  8
0
100
AcDbLine
 62
2
  6
CONTINUOUS
 10
1328.3486994308
 20
856.7305619768
 11
1218.3486994308
 21
856.7305619768
  0
LINE
  5
2AF
100
AcDbEntity
  8
0
100
AcDbLine
 62
2
  6
CONTINUOUS
 10
1253.3486994308
 20
856.7305619768
 11
1253.3486994308
 21
821.7305619768
  0
LINE
  5
2B0
100
AcDbEntity
  8
0
100
AcDbLine
 62
2
  6
CONTINUOUS
 10
1328.3486994308
 20
856.7305619768
 11
1328.3486994308
 21
821.7305619768
  0
LINE
  5
2B1
100
AcDbEntity
  8
0
100
AcDbLine
 62
2
  6
CONTINUOUS
 10
1328.3486994308
 20
856.7305619768
 11
1363.3486994308
 21
856.7305619768
  0
LINE
  5
2B2
100
AcDbEntity
  8
0
100
AcDbLine
 62
2
  6
CONTINUOUS
 10
1328.3486994308
 20
821.7305619768
 11
1363.3486994308
 21
821.7305619768
  0
ENDBLK
  5
2B3
100
AcDbEntity
  8
0
  6
BYBLOCK
 62
0
100
AcDbBlockEnd
  0
BLOCK
  5
2B4
100
AcDbEntity
  8
0
100
AcDbBlockBegin
  2
_FILLED
 70
64
 10
0.0
 20
0.0
  3
_FILLED
  1

  0
SOLID
  5
2B5
100
AcDbEntity
  8
0
  6
BYBLOCK
 62
0
100
AcDbTrace
 10
0.0
 20
0.0
 11
-1.0
 21
0.125
 12
-1.0
 22
-0.125
 13
-1.0
 23
-0.125
  0
ENDBLK
  5
2B6
100
AcDbEntity
  8
0
  6
BYBLOCK
 62
0
100
AcDbBlockEnd
  0
BLOCK
  5
2B7
100
AcDbEntity
  8
0
100
AcDbBlockBegin
  2
_DOTBLANK
 70
64
 10
0.0
 20
0.0
  3
_DOTBLANK
  1

  0
CIRCLE
  5
2B8
100
AcDbEntity
  8
0
  6
BYBLOCK
 62
0
100
AcDbCircle
 10
0.0
 20
0.0
 40
0.125
  0
LINE
  5
2B9
100
AcDbEntity
  8
0
  6
BYBLOCK
 62
0
100
AcDbLine
 10
-1.0
 20
0.0
 11
0.0
 21
0.0
  0
ENDBLK
  5
2BA
100
AcDbEntity
  8
0
  6
BYBLOCK
 62
0
100
AcDbBlockEnd
  0
BLOCK
  5
2BB
100
AcDbEntity
  8
ZEICHNUNGSBEMASSUNGEN
100
AcDbBlockBegin
 62
2
  6
CONTINUOUS
  2
*D0
 70
65
 10
0.0
 20
0.0
  3
*D0
  1

  0
MTEXT
  5
2BC
100
AcDbEntity
  8
ZEICHNUNGSBEMASSUNGEN
100
AcDbMText
 62
5
  6
CONTINUOUS
  7
STANDARD
 71
2
 72
1
 10
1010.6166969919
 20
1223.1495157661
 30
0.0
 11
1.0
 21
0.0
 31
0.0
 44
0.9
  1
347
 40
12.5
 41
28.5714285714
  0
LINE
  5
2BD
100
AcDbEntity
  8
ZEICHNUNGSBEMASSUNGEN
100
AcDbLine
 62
2
  6
CONTINUOUS
 10
1200.5793319903
 20
1009.0245157661
 11
1200.5793319903
 21
1215.0245157661
  0
LINE
  5
2BE
100
AcDbEntity
  8
ZEICHNUNGSBEMASSUNGEN
100
AcDbLine
 62
2
  6
CONTINUOUS
 10
853.5793319903
 20
975.9942469034
 11
853.5793319903
 21
1215.0245157661
  0
LINE
  5
2BF
100
AcDbEntity
  8
ZEICHNUNGSBEMASSUNGEN
100
AcDbLine
 62
2
  6
CONTINUOUS
 10
1200.5793319903
 20
1207.5245157661
 11
1027.0793319903
 21
1207.5245157661
  0
LINE
  5
2C0
100
AcDbEntity
  8
ZEICHNUNGSBEMASSUNGEN
100
AcDbLine
 62
2
  6
CONTINUOUS
 10
853.5793319903
 20
1207.5245157661
 11
1027.0793319903
 21
1207.5245157661
  0
INSERT
  5
2C1
100
AcDbEntity
  8
ZEICHNUNGSBEMASSUNGEN
100
AcDbBlockReference
 62
2
  6
CONTINUOUS
  2
_FILLED
 10
1200.5793319903
 20
1207.5245157661
 41
17.5
 42
17.5
 43
17.5
  0
INSERT
  5
2C2
100
AcDbEntity
  8
ZEICHNUNGSBEMASSUNGEN
100
AcDbBlockReference
 62
2
  6
CONTINUOUS
  2
_FILLED
 10
853.5793319903
 20
1207.5245157661
 41
17.5
 42
17.5
 43
17.5
 50
180.0
  0
ENDBLK
  5
2C3
100
AcDbEntity
  8
0
  6
BYBLOCK
 62
0
100
AcDbBlockEnd
  0
BLOCK
  5
2C4
100
AcDbEntity
  8
ZEICHNUNGSBEMASSUNGEN
100
AcDbBlockBegin
 62
2
  6
CONTINUOUS
  2
*D1
 70
65
 10
0.0
 20
0.0
  3
*D1
  1

  0
MTEXT
  5
2C5
100
AcDbEntity
  8
ZEICHNUNGSBEMASSUNGEN
100
AcDbMText
 62
5
  6
CONTINUOUS
  7
STANDARD
 71
2
 72
1
 10
1044.8293319903
 20
1173.1495157661
 30
0.0
 11
1.0
 21
0.0
 31
0.0
 44
0.9
  1
91.5
 40
12.5
 41
33.0357142857
  0
LINE
  5
2C6
100
AcDbEntity
  8
ZEICHNUNGSBEMASSUNGEN
100
AcDbLine
 62
2
  6
CONTINUOUS
 10
1090.5793319903
 20
1054.0245157661
 11
1090.5793319903
 21
1165.0245157661
  0
LINE
  5
2C7
100
AcDbEntity
  8
ZEICHNUNGSBEMASSUNGEN
100
AcDbLine
 62
2
  6
CONTINUOUS
 10
999.0793319903
 20
926.9625395863
 11
999.0793319903
 21
1165.0245157661
  0
LINE
  5
2C8
100
AcDbEntity
  8
ZEICHNUNGSBEMASSUNGEN
100
AcDbLine
 62
2
  6
CONTINUOUS
 10
1090.5793319903
 20
1157.5245157661
 11
1044.8293319903
 21
1157.5245157661
  0
LINE
  5
2C9
100
AcDbEntity
  8
ZEICHNUNGSBEMASSUNGEN
100
AcDbLine
 62
2
  6
CONTINUOUS
 10
999.0793319903
 20
1157.5245157661
 11
1044.8293319903
 21
1157.5245157661
  0
INSERT
  5
2CA
100
AcDbEntity
  8
ZEICHNUNGSBEMASSUNGEN
100
AcDbBlockReference
 62
2
  6
CONTINUOUS
  2
_FILLED
 10
1090.5793319903
 20
1157.5245157661
 41
17.5
 42
17.5
 43
17.5
  0
INSERT
  5
2CB
100
AcDbEntity
  8
ZEICHNUNGSBEMASSUNGEN
100
AcDbBlockReference
 62
2
  6
CONTINUOUS
  2
_FILLED
 10
999.0793319903
 20
1157.5245157661
 41
17.5
 42
17.5
 43
17.5
 50
180.0
  0
ENDBLK
  5
2CC
100
AcDbEntity
  8
0
  6
BYBLOCK
 62
0
100
AcDbBlockEnd
  0
BLOCK
  5
2CD
100
AcDbEntity
  8
0
100
AcDbBlockBegin
 62
2
  6
CONTINUOUS
  2
*D2
 70
65
 10
0.0
 20
0.0
  3
*D2
  1

  0
MTEXT
  5
2CE
100
AcDbEntity
  8
0
100
AcDbMText
 62
5
  6
CONTINUOUS
  7
TEXTSTYLE_2
 71
2
 72
1
 10
292.1959567929
 20
1177.1495157661
 30
0.0
 11
1.0
 21
0.0
 31
0.0
 44
0.9
  1
{\Fgdt;o}\Ftxt;142
 40
12.5
 41
43.9732142857
  0
LINE
  5
2CF
100
AcDbEntity
  8
0
100
AcDbLine
 62
2
  6
CONTINUOUS
 10
221.1959567929
 20
1049.8748039895
 11
221.1959567929
 21
1169.0245157661
  0
LINE
  5
2D0
100
AcDbEntity
  8
0
100
AcDbLine
 62
2
  6
CONTINUOUS
 10
363.1959567929
 20
1049.8748039895
 11
363.1959567929
 21
1169.0245157661
  0
LINE
  5
2D1
100
AcDbEntity
  8
0
100
AcDbLine
 62
2
  6
CONTINUOUS
 10
221.1959567929
 20
1161.5245157661
 11
292.1959567929
 21
1161.5245157661
  0
LINE
  5
2D2
100
AcDbEntity
  8
0
100
AcDbLine
 62
2
  6
CONTINUOUS
 10
363.1959567929
 20
1161.5245157661
 11
292.1959567929
 21
1161.5245157661
  0
INSERT
  5
2D3
100
AcDbEntity
  8
0
100
AcDbBlockReference
 62
2
  6
CONTINUOUS
  2
_FILLED
 10
221.1959567929
 20
1161.5245157661
 41
17.5
 42
17.5
 43
17.5
 50
180.0
  0
INSERT
  5
2D4
100
AcDbEntity
  8
0
100
AcDbBlockReference
 62
2
  6
CONTINUOUS
  2
_FILLED
 10
363.1959567929
 20
1161.5245157661
 41
17.5
 42
17.5
 43
17.5
  0
ENDBLK
  5
2D5
100
AcDbEntity
  8
0
  6
BYBLOCK
 62
0
100
AcDbBlockEnd
  0
BLOCK
  5
2D6
100
AcDbEntity
  8
0
100
AcDbBlockBegin
 62
2
  6
CONTINUOUS
  2
*D3
 70
65
 10
0.0
 20
0.0
  3
*D3
  1

  0
MTEXT
  5
2D7
100
AcDbEntity
  8
0
100
AcDbMText
 62
5
  6
CONTINUOUS
  7
TEXTSTYLE_2
 71
1
 72
1
 10
398.2001226527
 20
903.2372687106
 30
0.0
 11
0.7094179476
 21
-0.704788036
 31
0.0
 44
0.9
  1
{\Fgdt;n}\Ftxt;185
 40
12.5
 41
42.5595238095
  0
LINE
  5
2D8
100
AcDbEntity
  8
0
100
AcDbLine
 62
2
  6
CONTINUOUS
 10
357.8171169419
 20
921.3316224364
 11
292.1959567929
 21
986.5245157661
  0
LINE
  5
2D9
100
AcDbEntity
  8
0
100
AcDbLine
 62
2
  6
CONTINUOUS
 10
292.1959567929
 20
986.5245157661
 11
417.3802996202
 21
862.1571700813
  0
LINE
  5
2DA
100
AcDbEntity
  8
0
100
AcDbLine
 62
2
  6
CONTINUOUS
 10
226.5747966439
 20
1051.7174090958
 11
292.1959567929
 21
986.5245157661
  0
INSERT
  5
2DB
100
AcDbEntity
  8
0
100
AcDbBlockReference
 62
2
  6
CONTINUOUS
  2
_FILLED
 10
357.8171169419
 20
921.3316224364
 41
17.5
 42
17.5
 43
17.5
 50
315.1875776565
  0
INSERT
  5
2DC
100
AcDbEntity
  8
0
100
AcDbBlockReference
 62
2
  6
CONTINUOUS
  2
_FILLED
 10
226.5747966439
 20
1051.7174090958
 41
17.5
 42
17.5
 43
17.5
 50
135.1875776565
  0
ENDBLK
  5
2DD
100
AcDbEntity
  8
0
  6
BYBLOCK
 62
0
100
AcDbBlockEnd
  0
BLOCK
  5
2DE
100
AcDbEntity
  8
0
100
AcDbBlockBegin
 62
2
  6
CONTINUOUS
  2
*D4
 70
65
 10
0.0
 20
0.0
  3
*D4
  1

  0
MTEXT
  5
2DF
100
AcDbEntity
  8
0
100
AcDbMText
 62
5
  6
CONTINUOUS
  7
STANDARD
 71
3
 72
1
 10
1067.7004363805
 20
1123.1495157661
 30
0.0
 11
1.0
 21
0.0
 31
0.0
 44
0.9
  1
28
 40
12.5
 41
19.6428571429
  0
LINE
  5
2E0
100
AcDbEntity
  8
0
100
AcDbLine
 62
2
  6
CONTINUOUS
 10
1118.5793319903
 20
1054.0245157661
 11
1118.5793319903
 21
1115.0245157661
  0
LINE
  5
2E1
100
AcDbEntity
  8
0
100
AcDbLine
 62
2
  6
CONTINUOUS
 10
1090.5793319903
 20
1054.0245157661
 11
1090.5793319903
 21
1115.0245157661
  0
LINE
  5
2E2
100
AcDbEntity
  8
0
100
AcDbLine
 62
2
  6
CONTINUOUS
 10
1118.5793319903
 20
1107.5245157661
 11
1148.5793319903
 21
1107.5245157661
  0
LINE
  5
2E3
100
AcDbEntity
  8
0
100
AcDbLine
 62
2
  6
CONTINUOUS
 10
1148.5793319903
 20
1107.5245157661
 11
1104.5793319903
 21
1107.5245157661
  0
LINE
  5
2E4
100
AcDbEntity
  8
0
100
AcDbLine
 62
2
  6
CONTINUOUS
 10
1090.5793319903
 20
1107.5245157661
 11
1048.0575792377
 21
1107.5245157661
  0
LINE
  5
2E5
100
AcDbEntity
  8
0
100
AcDbLine
 62
2
  6
CONTINUOUS
 10
1048.0575792377
 20
1107.5245157661
 11
1104.5793319903
 21
1107.5245157661
  0
INSERT
  5
2E6
100
AcDbEntity
  8
0
100
AcDbBlockReference
 62
2
  6
CONTINUOUS
  2
_FILLED
 10
1118.5793319903
 20
1107.5245157661
 41
17.5
 42
17.5
 43
17.5
 50
180.0
  0
INSERT
  5
2E7
100
AcDbEntity
  8
0
100
AcDbBlockReference
 62
2
  6
CONTINUOUS
  2
_FILLED
 10
1090.5793319903
 20
1107.5245157661
 41
17.5
 42
17.5
 43
17.5
  0
ENDBLK
  5
2E8
100
AcDbEntity
  8
0
  6
BYBLOCK
 62
0
100
AcDbBlockEnd
  0
BLOCK
  5
2E9
100
AcDbEntity
  8
0
100
AcDbBlockBegin
 62
2
  6
CONTINUOUS
  2
*D5
 70
65
 10
0.0
 20
0.0
  3
*D5
  1

  0
MTEXT
  5
2EA
100
AcDbEntity
  8
0
100
AcDbMText
 62
5
  6
CONTINUOUS
  7
TEXTSTYLE_2
 71
2
 72
1
 10
1359.9543319903
 20
982.2027196669
 30
0.0
 11
0.0
 21
1.0
 31
0.0
 44
0.9
  1
{\Fgdt;n}\Ftxt;130
 40
12.5
 41
42.5595238095
  0
LINE
  5
2EB
100
AcDbEntity
  8
0
100
AcDbLine
 62
2
  6
CONTINUOUS
 10
1093.0793319903
 20
921.5245157661
 11
1246.1866304878
 21
921.5245157661
  0
LINE
  5
2EC
100
AcDbEntity
  8
0
100
AcDbLine
 62
2
  6
CONTINUOUS
 10
1374.0777368293
 20
921.5245157661
 11
1383.0793319903
 21
921.5245157661
  0
LINE
  5
2ED
100
AcDbEntity
  8
0
100
AcDbLine
 62
2
  6
CONTINUOUS
 10
1093.0793319903
 20
1051.5245157661
 11
1383.0793319903
 21
1051.5245157661
  0
LINE
  5
2EE
100
AcDbEntity
  8
0
100
AcDbLine
 62
2
  6
CONTINUOUS
 10
1375.5793319903
 20
921.5245157661
 11
1375.5793319903
 21
986.5245157661
  0
LINE
  5
2EF
100
AcDbEntity
  8
0
100
AcDbLine
 62
2
  6
CONTINUOUS
 10
1375.5793319903
 20
1051.5245157661
 11
1375.5793319903
 21
986.5245157661
  0
INSERT
  5
2F0
100
AcDbEntity
  8
0
100
AcDbBlockReference
 62
2
  6
CONTINUOUS
  2
_FILLED
 10
1375.5793319903
 20
921.5245157661
 41
17.5
 42
17.5
 43
17.5
 50
270.0
  0
INSERT
  5
2F1
100
AcDbEntity
  8
0
100
AcDbBlockReference
 62
2
  6
CONTINUOUS
  2
_FILLED
 10
1375.5793319903
 20
1051.5245157661
 41
17.5
 42
17.5
 43
17.5
 50
90.0
  0
ENDBLK
  5
2F2
100
AcDbEntity
  8
0
  6
BYBLOCK
 62
0
100
AcDbBlockEnd
  0
BLOCK
  5
2F3
100
AcDbEntity
  8
0
100
AcDbBlockBegin
 62
2
  6
CONTINUOUS
  2
*D6
 70
65
 10
0.0
 20
0.0
  3
*D6
  1

  0
TEXT
  5
2F4
100
AcDbEntity
  8
0
100
AcDbText
 62
5
  6
CONTINUOUS
 10
1319.294251097
 20
962.2039878633
  7
TEXTSTYLE_2
 40
12.5
  1
n
 50
89.906592694
 41
1.0
 72
1
 11
1319.3078366329
 21
970.5373101226
100
AcDbText
  0
TEXT
  5
2F5
100
AcDbEntity
  8
0
100
AcDbText
 62
5
  6
CONTINUOUS
 10
1319.3214221689
 20
978.8706323819
  7
STANDARD
 40
12.5
  1
70
 50
89.906592694
 41
0.7857142857
 72
1
 11
1319.3374336934
 21
988.6920479018
100
AcDbText
  0
TEXT
  5
2F6
100
AcDbEntity
  8
0
100
AcDbText
 62
5
  6
CONTINUOUS
 10
1311.8534551845
 20
998.5256904041
  7
TEXTSTYLE_3
 40
7.5
  1
 0
 50
89.906592694
 41
0.7857142857
 72
1
 11
1311.8630620992
 21
1004.418539716
100
AcDbText
  0
TEXT
  5
2F7
100
AcDbEntity
  8
0
100
AcDbText
 62
5
  6
CONTINUOUS
 10
1321.8534418957
 20
998.5093877609
  7
TEXTSTYLE_3
 40
7.5
  1
-3
 50
89.906592694
 41
0.7142857143
 72
1
 11
1321.8621754545
 21
1003.8665234991
100
AcDbText
  0
LINE
  5
2F8
100
AcDbEntity
  8
0
100
AcDbLine
 62
2
  6
CONTINUOUS
 10
1123.0793319903
 20
1021.5172260778
 11
1333.1404074594
 21
1021.1747705479
  0
LINE
  5
2F9
100
AcDbEntity
  8
0
100
AcDbLine
 62
2
  6
CONTINUOUS
 10
1123.0793319903
 20
951.517133056
 11
1252.2581479011
 21
951.3065371626
  0
LINE
  5
2FA
100
AcDbEntity
  8
0
100
AcDbLine
 62
2
  6
CONTINUOUS
 10
1325.640417426
 20
1021.1869975303
 11
1325.5833581751
 21
986.1870440411
  0
LINE
  5
2FB
100
AcDbEntity
  8
0
100
AcDbLine
 62
2
  6
CONTINUOUS
 10
1325.5262989241
 20
951.187090552
 11
1325.5833581751
 21
986.1870440411
  0
INSERT
  5
2FC
100
AcDbEntity
  8
0
100
AcDbBlockReference
 62
2
  6
CONTINUOUS
  2
_FILLED
 10
1325.640417426
 20
1021.1869975303
 41
17.5
 42
17.5
 43
17.5
 50
89.906592694
  0
INSERT
  5
2FD
100
AcDbEntity
  8
0
100
AcDbBlockReference
 62
2
  6
CONTINUOUS
  2
_FILLED
 10
1325.5262989241
 20
951.187090552
 41
17.5
 42
17.5
 43
17.5
 50
269.906592694
  0
ENDBLK
  5
2FE
100
AcDbEntity
  8
0
  6
BYBLOCK
 62
0
100
AcDbBlockEnd
  0
BLOCK
  5
2FF
100
AcDbEntity
  8
0
100
AcDbBlockBegin
 62
2
  6
CONTINUOUS
  2
*D7
 70
65
 10
0.0
 20
0.0
  3
*D7
  1

  0
MTEXT
  5
300
100
AcDbEntity
  8
0
100
AcDbMText
 62
5
  6
CONTINUOUS
  7
STANDARD
 71
2
 72
1
 10
1160.5793319903
 20
1148.1495157661
 30
0.0
 11
1.0
 21
0.0
 31
0.0
 44
0.9
  1
80
 40
12.5
 41
19.6428571429
  0
LINE
  5
301
100
AcDbEntity
  8
0
100
AcDbLine
 62
2
  6
CONTINUOUS
 10
1120.5793319903
 20
1024.0245157661
 11
1120.5793319903
 21
1140.0245157661
  0
LINE
  5
302
100
AcDbEntity
  8
0
100
AcDbLine
 62
2
  6
CONTINUOUS
 10
1200.5793319903
 20
1009.0245157661
 11
1200.5793319903
 21
1140.0245157661
  0
LINE
  5
303
100
AcDbEntity
  8
0
100
AcDbLine
 62
2
  6
CONTINUOUS
 10
1120.5793319903
 20
1132.5245157661
 11
1160.5793319903
 21
1132.5245157661
  0
LINE
  5
304
100
AcDbEntity
  8
0
100
AcDbLine
 62
2
  6
CONTINUOUS
 10
1200.5793319903
 20
1132.5245157661
 11
1160.5793319903
 21
1132.5245157661
  0
INSERT
  5
305
100
AcDbEntity
  8
0
100
AcDbBlockReference
 62
2
  6
CONTINUOUS
  2
_FILLED
 10
1120.5793319903
 20
1132.5245157661
 41
17.5
 42
17.5
 43
17.5
 50
180.0
  0
INSERT
  5
306
100
AcDbEntity
  8
0
100
AcDbBlockReference
 62
2
  6
CONTINUOUS
  2
_FILLED
 10
1200.5793319903
 20
1132.5245157661
 41
17.5
 42
17.5
 43
17.5
  0
ENDBLK
  5
307
100
AcDbEntity
  8
0
  6
BYBLOCK
 62
0
100
AcDbBlockEnd
  0
BLOCK
  5
308
100
AcDbEntity
  8
0
100
AcDbBlockBegin
 62
2
  6
CONTINUOUS
  2
*D8
 70
65
 10
0.0
 20
0.0
  3
*D8
  1

  0
MTEXT
  5
309
100
AcDbEntity
  8
0
100
AcDbMText
 62
5
  6
CONTINUOUS
  7
TEXTSTYLE_2
 71
3
 72
1
 10
1259.9543319903
 20
911.5245157661
 30
0.0
 11
0.0
 21
1.0
 31
0.0
 44
0.9
  1
{\Fgdt;n}\Ftxt;40
 40
12.5
 41
36.3095238095
  0
LINE
  5
30A
100
AcDbEntity
  8
0
100
AcDbLine
 62
2
  6
CONTINUOUS
 10
1203.0793319903
 20
966.5245157661
 11
1283.0793319903
 21
966.5245157661
  0
LINE
  5
30B
100
AcDbEntity
  8
0
100
AcDbLine
 62
2
  6
CONTINUOUS
 10
1203.0793319903
 20
1006.5245157661
 11
1283.0793319903
 21
1006.5245157661
  0
LINE
  5
30C
100
AcDbEntity
  8
0
100
AcDbLine
 62
2
  6
CONTINUOUS
 10
1275.5793319903
 20
966.5245157661
 11
1275.5793319903
 21
986.5245157661
  0
LINE
  5
30D
100
AcDbEntity
  8
0
100
AcDbLine
 62
2
  6
CONTINUOUS
 10
1275.5793319903
 20
986.5245157661
 11
1275.5793319903
 21
875.2149919565
  0
LINE
  5
30E
100
AcDbEntity
  8
0
100
AcDbLine
 62
2
  6
CONTINUOUS
 10
1275.5793319903
 20
1006.5245157661
 11
1275.5793319903
 21
986.5245157661
  0
INSERT
  5
30F
100
AcDbEntity
  8
0
100
AcDbBlockReference
 62
2
  6
CONTINUOUS
  2
_FILLED
 10
1275.5793319903
 20
966.5245157661
 41
17.5
 42
17.5
 43
17.5
 50
270.0
  0
INSERT
  5
310
100
AcDbEntity
  8
0
100
AcDbBlockReference
 62
2
  6
CONTINUOUS
  2
_FILLED
 10
1275.5793319903
 20
1006.5245157661
 41
17.5
 42
17.5
 43
17.5
 50
90.0
  0
ENDBLK
  5
311
100
AcDbEntity
  8
0
  6
BYBLOCK
 62
0
100
AcDbBlockEnd
  0
BLOCK
  5
312
100
AcDbEntity
  8
0
100
AcDbBlockBegin
 62
2
  6
CONTINUOUS
  2
*D9
 70
65
 10
0.0
 20
0.0
  3
*D9
  1

  0
MTEXT
  5
313
100
AcDbEntity
  8
0
100
AcDbMText
 62
5
  6
CONTINUOUS
  7
STANDARD
 71
1
 72
1
 10
155.0709567929
 20
1028.0071485057
 30
0.0
 11
0.0
 21
1.0
 31
0.0
 44
0.9
  1
43
 40
12.5
 41
18.75
  0
LINE
  5
314
100
AcDbEntity
  8
0
100
AcDbLine
 62
2
  6
CONTINUOUS
 10
283.6959567929
 20
1009.5245157661
 11
163.1959567929
 21
1009.5245157661
  0
LINE
  5
315
100
AcDbEntity
  8
0
100
AcDbLine
 62
2
  6
CONTINUOUS
 10
283.6959567929
 20
966.5245157661
 11
163.1959567929
 21
966.5245157661
  0
LINE
  5
316
100
AcDbEntity
  8
0
100
AcDbLine
 62
2
  6
CONTINUOUS
 10
170.6959567929
 20
1009.5245157661
 11
170.6959567929
 21
988.0245157661
  0
LINE
  5
317
100
AcDbEntity
  8
0
100
AcDbLine
 62
2
  6
CONTINUOUS
 10
170.6959567929
 20
988.0245157661
 11
170.6959567929
 21
1046.7571485057
  0
LINE
  5
318
100
AcDbEntity
  8
0
100
AcDbLine
 62
2
  6
CONTINUOUS
 10
170.6959567929
 20
966.5245157661
 11
170.6959567929
 21
988.0245157661
  0
INSERT
  5
319
100
AcDbEntity
  8
0
100
AcDbBlockReference
 62
2
  6
CONTINUOUS
  2
_FILLED
 10
170.6959567929
 20
1009.5245157661
 41
17.5
 42
17.5
 43
17.5
 50
90.0
  0
INSERT
  5
31A
100
AcDbEntity
  8
0
100
AcDbBlockReference
 62
2
  6
CONTINUOUS
  2
_FILLED
 10
170.6959567929
 20
966.5245157661
 41
17.5
 42
17.5
 43
17.5
 50
270.0
  0
ENDBLK
  5
31B
100
AcDbEntity
  8
0
  6
BYBLOCK
 62
0
100
AcDbBlockEnd
  0
BLOCK
  5
31C
100
AcDbEntity
  8
0
100
AcDbBlockBegin
 62
2
  6
CONTINUOUS
  2
*D10
 70
65
 10
0.0
 20
0.0
  3
*D10
  1

  0
MTEXT
  5
31D
100
AcDbEntity
  8
0
100
AcDbMText
 62
5
  6
CONTINUOUS
  7
STANDARD
 71
3
 72
1
 10
264.7073290918
 20
1152.1495157661
 30
0.0
 11
1.0
 21
0.0
 31
0.0
 44
0.9
  1
12
 40
12.5
 41
16.9642857143
  0
LINE
  5
31E
100
AcDbEntity
  8
0
100
AcDbLine
 62
2
  6
CONTINUOUS
 10
298.1959567929
 20
1012.0245157661
 11
298.1959567929
 21
1144.0245157661
  0
LINE
  5
31F
100
AcDbEntity
  8
0
100
AcDbLine
 62
2
  6
CONTINUOUS
 10
286.1959567929
 20
1012.0245157661
 11
286.1959567929
 21
1144.0245157661
  0
LINE
  5
320
100
AcDbEntity
  8
0
100
AcDbLine
 62
2
  6
CONTINUOUS
 10
298.1959567929
 20
1136.5245157661
 11
328.1959567929
 21
1136.5245157661
  0
LINE
  5
321
100
AcDbEntity
  8
0
100
AcDbLine
 62
2
  6
CONTINUOUS
 10
328.1959567929
 20
1136.5245157661
 11
292.1959567929
 21
1136.5245157661
  0
LINE
  5
322
100
AcDbEntity
  8
0
100
AcDbLine
 62
2
  6
CONTINUOUS
 10
286.1959567929
 20
1136.5245157661
 11
247.7430433775
 21
1136.5245157661
  0
LINE
  5
323
100
AcDbEntity
  8
0
100
AcDbLine
 62
2
  6
CONTINUOUS
 10
247.7430433775
 20
1136.5245157661
 11
292.1959567929
 21
1136.5245157661
  0
INSERT
  5
324
100
AcDbEntity
  8
0
100
AcDbBlockReference
 62
2
  6
CONTINUOUS
  2
_FILLED
 10
298.1959567929
 20
1136.5245157661
 41
17.5
 42
17.5
 43
17.5
 50
180.0
  0
INSERT
  5
325
100
AcDbEntity
  8
0
100
AcDbBlockReference
 62
2
  6
CONTINUOUS
  2
_FILLED
 10
286.1959567929
 20
1136.5245157661
 41
17.5
 42
17.5
 43
17.5
  0
ENDBLK
  5
326
100
AcDbEntity
  8
0
  6
BYBLOCK
 62
0
100
AcDbBlockEnd
  0
BLOCK
  5
327
100
AcDbEntity
  8
0
100
AcDbBlockBegin
 62
2
  6
CONTINUOUS
  2
*D11
 70
65
 10
0.0
 20
0.0
  3
*D11
  1

  0
MTEXT
  5
328
100
AcDbEntity
  8
0
100
AcDbMText
 62
5
  6
CONTINUOUS
  7
STANDARD
 71
3
 72
1
 10
1170.7264375945
 20
1060.1495157661
 30
0.0
 11
1.0
 21
0.0
 31
0.0
 44
0.9
  1
8
 40
12.5
 41
9.8214285714
  0
LINE
  5
329
100
AcDbEntity
  8
0
100
AcDbLine
 62
2
  6
CONTINUOUS
 10
1200.5793319903
 20
1009.0245157661
 11
1200.5793319903
 21
1052.0245157661
  0
LINE
  5
32A
100
AcDbEntity
  8
0
100
AcDbLine
 62
2
  6
CONTINUOUS
 10
1192.5793319903
 20
1012.0245157661
 11
1192.5793319903
 21
1052.0245157661
  0
LINE
  5
32B
100
AcDbEntity
  8
0
100
AcDbLine
 62
2
  6
CONTINUOUS
 10
1200.5793319903
 20
1044.5245157661
 11
1230.5793319903
 21
1044.5245157661
  0
LINE
  5
32C
100
AcDbEntity
  8
0
100
AcDbLine
 62
2
  6
CONTINUOUS
 10
1230.5793319903
 20
1044.5245157661
 11
1196.5793319903
 21
1044.5245157661
  0
LINE
  5
32D
100
AcDbEntity
  8
0
100
AcDbLine
 62
2
  6
CONTINUOUS
 10
1192.5793319903
 20
1044.5245157661
 11
1160.9050090231
 21
1044.5245157661
  0
LINE
  5
32E
100
AcDbEntity
  8
0
100
AcDbLine
 62
2
  6
CONTINUOUS
 10
1160.9050090231
 20
1044.5245157661
 11
1196.5793319903
 21
1044.5245157661
  0
INSERT
  5
32F
100
AcDbEntity
  8
0
100
AcDbBlockReference
 62
2
  6
CONTINUOUS
  2
_FILLED
 10
1200.5793319903
 20
1044.5245157661
 41
17.5
 42
17.5
 43
17.5
 50
180.0
  0
INSERT
  5
330
100
AcDbEntity
  8
0
100
AcDbBlockReference
 62
2
  6
CONTINUOUS
  2
_FILLED
 10
1192.5793319903
 20
1044.5245157661
 41
17.5
 42
17.5
 43
17.5
  0
ENDBLK
  5
331
100
AcDbEntity
  8
0
  6
BYBLOCK
 62
0
100
AcDbBlockEnd
  0
BLOCK
  5
332
100
AcDbEntity
  8
0
100
AcDbBlockBegin
 62
2
  6
CONTINUOUS
  2
*D12
 70
65
 10
0.0
 20
0.0
  3
*D12
  1

  0
MTEXT
  5
333
100
AcDbEntity
  8
0
100
AcDbMText
 62
5
  6
CONTINUOUS
  7
STANDARD
 71
2
 72
1
 10
1160.0793319903
 20
1083.1495157661
 30
0.0
 11
1.0
 21
0.0
 31
0.0
 44
0.9
  1
65
 40
12.5
 41
18.75
  0
LINE
  5
334
100
AcDbEntity
  8
0
100
AcDbLine
 62
2
  6
CONTINUOUS
 10
1192.5793319903
 20
1012.0245157661
 11
1192.5793319903
 21
1075.0245157661
  0
LINE
  5
335
100
AcDbEntity
  8
0
100
AcDbLine
 62
2
  6
CONTINUOUS
 10
1127.5793319903
 20
1012.0245157661
 11
1127.5793319903
 21
1075.0245157661
  0
LINE
  5
336
100
AcDbEntity
  8
0
100
AcDbLine
 62
2
  6
CONTINUOUS
 10
1192.5793319903
 20
1067.5245157661
 11
1160.0793319903
 21
1067.5245157661
  0
LINE
  5
337
100
AcDbEntity
  8
0
100
AcDbLine
 62
2
  6
CONTINUOUS
 10
1127.5793319903
 20
1067.5245157661
 11
1160.0793319903
 21
1067.5245157661
  0
INSERT
  5
338
100
AcDbEntity
  8
0
100
AcDbBlockReference
 62
2
  6
CONTINUOUS
  2
_FILLED
 10
1192.5793319903
 20
1067.5245157661
 41
17.5
 42
17.5
 43
17.5
  0
INSERT
  5
339
100
AcDbEntity
  8
0
100
AcDbBlockReference
 62
2
  6
CONTINUOUS
  2
_FILLED
 10
1127.5793319903
 20
1067.5245157661
 41
17.5
 42
17.5
 43
17.5
 50
180.0
  0
ENDBLK
  5
33A
100
AcDbEntity
  8
0
  6
BYBLOCK
 62
0
100
AcDbBlockEnd
  0
BLOCK
  5
33B
100
AcDbEntity
  8
0
100
AcDbBlockBegin
 62
2
  6
CONTINUOUS
  2
*D13
 70
65
 10
0.0
 20
0.0
  3
*D13
  1

  0
MTEXT
  5
33C
100
AcDbEntity
  8
0
100
AcDbMText
 62
5
  6
CONTINUOUS
  7
STANDARD
 71
1
 72
1
 10
451.4644108317
 20
1079.9400512541
 30
0.0
 11
0.7071067812
 21
-0.7071067812
 31
0.0
 44
0.9
  1
11
 40
12.5
 41
14.2857142857
  0
LINE
  5
33D
100
AcDbEntity
  8
0
100
AcDbLine
 62
2
  6
CONTINUOUS
 10
358.2230742653
 20
1044.7734586454
 11
416.6817962557
 21
1103.2321806358
  0
LINE
  5
33E
100
AcDbEntity
  8
0
100
AcDbLine
 62
2
  6
CONTINUOUS
 10
350.693790323
 20
1052.8005238893
 11
408.9036216626
 21
1111.0103552288
  0
LINE
  5
33F
100
AcDbEntity
  8
0
100
AcDbLine
 62
2
  6
CONTINUOUS
 10
411.3784953968
 20
1097.9288797769
 11
450.5173928211
 21
1058.7899823525
  0
LINE
  5
340
100
AcDbEntity
  8
0
100
AcDbLine
 62
2
  6
CONTINUOUS
 10
450.5173928211
 20
1058.7899823525
 11
407.4894081002
 21
1101.8179670734
  0
LINE
  5
341
100
AcDbEntity
  8
0
100
AcDbLine
 62
2
  6
CONTINUOUS
 10
403.6003208037
 20
1105.7070543699
 11
382.3871173681
 21
1126.9202578055
  0
LINE
  5
342
100
AcDbEntity
  8
0
100
AcDbLine
 62
2
  6
CONTINUOUS
 10
382.3871173681
 20
1126.9202578055
 11
407.4894081002
 21
1101.8179670734
  0
INSERT
  5
343
100
AcDbEntity
  8
0
100
AcDbBlockReference
 62
2
  6
CONTINUOUS
  2
_FILLED
 10
411.3784953968
 20
1097.9288797769
 41
17.5
 42
17.5
 43
17.5
 50
135.0
  0
INSERT
  5
344
100
AcDbEntity
  8
0
100
AcDbBlockReference
 62
2
  6
CONTINUOUS
  2
_FILLED
 10
403.6003208037
 20
1105.7070543699
 41
17.5
 42
17.5
 43
17.5
 50
315.0
  0
ENDBLK
  5
345
100
AcDbEntity
  8
0
  6
BYBLOCK
 62
0
100
AcDbBlockEnd
  0
BLOCK
  5
346
100
AcDbEntity
  8
ZEICHNUNGSBEMASSUNGEN
100
AcDbBlockBegin
 62
2
  6
CONTINUOUS
  2
*D14
 70
65
 10
0.0
 20
0.0
  3
*D14
  1

  0
MTEXT
  5
347
100
AcDbEntity
  8
ZEICHNUNGSBEMASSUNGEN
100
AcDbMText
 62
5
  6
CONTINUOUS
  7
STANDARD
 71
2
 72
1
 10
1145.5793319903
 20
1173.1495157661
 30
0.0
 11
1.0
 21
0.0
 31
0.0
 44
0.9
  1
110
 40
12.5
 41
24.1071428571
  0
LINE
  5
348
100
AcDbEntity
  8
ZEICHNUNGSBEMASSUNGEN
100
AcDbLine
 62
2
  6
CONTINUOUS
 10
1200.5793319903
 20
1009.0245157661
 11
1200.5793319903
 21
1165.0245157661
  0
LINE
  5
349
100
AcDbEntity
  8
ZEICHNUNGSBEMASSUNGEN
100
AcDbLine
 62
2
  6
CONTINUOUS
 10
1090.5793319903
 20
1054.0245157661
 11
1090.5793319903
 21
1165.0245157661
  0
LINE
  5
34A
100
AcDbEntity
  8
ZEICHNUNGSBEMASSUNGEN
100
AcDbLine
 62
2
  6
CONTINUOUS
 10
1200.5793319903
 20
1157.5245157661
 11
1145.5793319903
 21
1157.5245157661
  0
LINE
  5
34B
100
AcDbEntity
  8
ZEICHNUNGSBEMASSUNGEN
100
AcDbLine
 62
2
  6
CONTINUOUS
 10
1090.5793319903
 20
1157.5245157661
 11
1145.5793319903
 21
1157.5245157661
  0
INSERT
  5
34C
100
AcDbEntity
  8
ZEICHNUNGSBEMASSUNGEN
100
AcDbBlockReference
 62
2
  6
CONTINUOUS
  2
_FILLED
 10
1200.5793319903
 20
1157.5245157661
 41
17.5
 42
17.5
 43
17.5
  0
INSERT
  5
34D
100
AcDbEntity
  8
ZEICHNUNGSBEMASSUNGEN
100
AcDbBlockReference
 62
2
  6
CONTINUOUS
  2
_FILLED
 10
1090.5793319903
 20
1157.5245157661
 41
17.5
 42
17.5
 43
17.5
 50
180.0
  0
ENDBLK
  5
34E
100
AcDbEntity
  8
0
  6
BYBLOCK
 62
0
100
AcDbBlockEnd
  0
BLOCK
  5
34F
100
AcDbEntity
  8
ZEICHNUNGSBEMASSUNGEN
100
AcDbBlockBegin
 62
2
  6
CONTINUOUS
  2
*D15
 70
65
 10
0.0
 20
0.0
  3
*D15
  1

  0
MTEXT
  5
350
100
AcDbEntity
  8
ZEICHNUNGSBEMASSUNGEN
100
AcDbMText
 62
5
  6
CONTINUOUS
  7
STANDARD
 71
2
 72
1
 10
1128.1189375737
 20
917.5049793599
 30
0.0
 11
0.223374835
 21
0.9747326213
 31
0.0
 44
0.9
  1
5\Fgdt;{\Fgdt;~}
 40
12.5
 41
17.2619047619
  0
LINE
  5
351
100
AcDbEntity
  8
ZEICHNUNGSBEMASSUNGEN
100
AcDbLine
 62
2
  6
CONTINUOUS
 10
1118.0793314442
 20
921.5245157661
 11
1122.6280607923
 21
921.5245157661
  0
LINE
  5
352
100
AcDbEntity
  8
ZEICHNUNGSBEMASSUNGEN
100
AcDbLine
 62
2
  6
CONTINUOUS
 10
1148.2761200169
 20
921.5245157661
 11
1167.3236134482
 21
921.5245157661
  0
LINE
  5
353
100
AcDbEntity
  8
ZEICHNUNGSBEMASSUNGEN
100
AcDbLine
 62
2
  6
CONTINUOUS
 10
1149.0473855749
 20
924.8900591545
 11
1167.1076833612
 21
926.4701298351
  0
ARC
  5
354
100
AcDbEntity
  8
ZEICHNUNGSBEMASSUNGEN
100
AcDbCircle
 62
2
  6
CONTINUOUS
 10
1110.5790331449
 20
921.5245157661
 40
49.2445803033
100
AcDbArc
 50
347.0926689977
 51
360.0
  0
ARC
  5
355
100
AcDbEntity
  8
ZEICHNUNGSBEMASSUNGEN
100
AcDbCircle
 62
2
  6
CONTINUOUS
 10
1110.5790331449
 20
921.5245157661
 40
49.2445803033
100
AcDbArc
 50
4.999997999
 51
39.904821531
  0
ARC
  5
356
100
AcDbEntity
  8
ZEICHNUNGSBEMASSUNGEN
100
AcDbCircle
 62
2
  6
CONTINUOUS
 10
1110.5790331449
 20
921.5245157661
 40
49.2445803033
100
AcDbArc
 50
0.0
 51
4.999997999
  0
SOLID
  5
357
100
AcDbEntity
  8
ZEICHNUNGSBEMASSUNGEN
100
AcDbTrace
 62
2
  6
CONTINUOUS
 10
1158.8835294829
 20
903.9134000039
 11
1159.8236134482
 21
921.5245157661
 12
1154.5774112634
 22
904.6866857727
 13
1154.5774112634
 23
904.6866857727
  0
SOLID
  5
358
100
AcDbEntity
  8
ZEICHNUNGSBEMASSUNGEN
100
AcDbTrace
 62
2
  6
CONTINUOUS
 10
1152.9424712916
 20
942.132982578
 11
1159.6362231027
 21
925.8164620254
 12
1157.1648071757
 22
943.2786285452
 13
1157.1648071757
 23
943.2786285452
  0
ENDBLK
  5
359
100
AcDbEntity
  8
0
  6
BYBLOCK
 62
0
100
AcDbBlockEnd
  0
BLOCK
  5
35A
100
AcDbEntity
  8
ZEICHNUNGSBEMASSUNGEN
100
AcDbBlockBegin
 62
2
  6
CONTINUOUS
  2
*D16
 70
65
 10
0.0
 20
0.0
  3
*D16
  1

  0
MTEXT
  5
35B
100
AcDbEntity
  8
ZEICHNUNGSBEMASSUNGEN
100
AcDbMText
 62
5
  6
CONTINUOUS
  7
STANDARD
 71
3
 72
1
 10
1052.744395734
 20
856.1495157661
 30
0.0
 11
1.0
 21
0.0
 31
0.0
 44
0.9
  1
12
 40
12.5
 41
16.9642857143
  0
LINE
  5
35C
100
AcDbEntity
  8
ZEICHNUNGSBEMASSUNGEN
100
AcDbLine
 62
2
  6
CONTINUOUS
 10
1078.5793319903
 20
910.5245157661
 11
1078.5793319903
 21
833.0245157661
  0
LINE
  5
35D
100
AcDbEntity
  8
ZEICHNUNGSBEMASSUNGEN
100
AcDbLine
 62
2
  6
CONTINUOUS
 10
1090.5793319903
 20
910.5245157661
 11
1090.5793319903
 21
833.0245157661
  0
LINE
  5
35E
100
AcDbEntity
  8
ZEICHNUNGSBEMASSUNGEN
100
AcDbLine
 62
2
  6
CONTINUOUS
 10
1078.5793319903
 20
840.5245157661
 11
1035.7801100198
 21
840.5245157661
  0
LINE
  5
35F
100
AcDbEntity
  8
ZEICHNUNGSBEMASSUNGEN
100
AcDbLine
 62
2
  6
CONTINUOUS
 10
1035.7801100198
 20
840.5245157661
 11
1084.5793319903
 21
840.5245157661
  0
LINE
  5
360
100
AcDbEntity
  8
ZEICHNUNGSBEMASSUNGEN
100
AcDbLine
 62
2
  6
CONTINUOUS
 10
1090.5793319903
 20
840.5245157661
 11
1120.5793319903
 21
840.5245157661
  0
LINE
  5
361
100
AcDbEntity
  8
ZEICHNUNGSBEMASSUNGEN
100
AcDbLine
 62
2
  6
CONTINUOUS
 10
1120.5793319903
 20
840.5245157661
 11
1084.5793319903
 21
840.5245157661
  0
INSERT
  5
362
100
AcDbEntity
  8
ZEICHNUNGSBEMASSUNGEN
100
AcDbBlockReference
 62
2
  6
CONTINUOUS
  2
_FILLED
 10
1078.5793319903
 20
840.5245157661
 41
17.5
 42
17.5
 43
17.5
  0
INSERT
  5
363
100
AcDbEntity
  8
ZEICHNUNGSBEMASSUNGEN
100
AcDbBlockReference
 62
2
  6
CONTINUOUS
  2
_FILLED
 10
1090.5793319903
 20
840.5245157661
 41
17.5
 42
17.5
 43
17.5
 50
180.0
  0
ENDBLK
  5
364
100
AcDbEntity
  8
0
  6
BYBLOCK
 62
0
100
AcDbBlockEnd
  0
BLOCK
  5
365
100
AcDbEntity
  8
0
100
AcDbBlockBegin
 62
2
  6
CONTINUOUS
  2
*D17
 70
65
 10
0.0
 20
0.0
  3
*D17
  1

  0
TEXT
  5
366
100
AcDbEntity
  8
0
100
AcDbText
 62
5
  6
CONTINUOUS
 10
419.1005147584
 20
972.7644200272
  7
STANDARD
 40
12.5
  1
 
 50
-8.9948047494
 41
0.7857142857
 72
0
100
AcDbText
  0
TEXT
  5
367
100
AcDbEntity
  8
0
100
AcDbText
 62
5
  6
CONTINUOUS
 10
428.8011645193
 20
971.2288896953
  7
TEXTSTYLE_2
 40
12.5
  1
n
 50
-8.9948047494
 41
1.0
 72
0
100
AcDbText
  0
TEXT
  5
368
100
AcDbEntity
  8
0
100
AcDbText
 62
5
  6
CONTINUOUS
 10
445.2628732045
 20
968.6231412533
  7
STANDARD
 40
12.5
  1
165
 50
-8.9948047494
 41
0.6904761905
 72
0
100
AcDbText
  0
TEXT
  5
369
100
AcDbEntity
  8
0
100
AcDbText
 62
5
  6
CONTINUOUS
 10
472.0099002821
 20
971.9826938321
  7
TEXTSTYLE_3
 40
7.5
  1
+0.3
 50
-8.9948047494
 41
0.6964285714
 72
0
100
AcDbText
  0
TEXT
  5
36A
100
AcDbEntity
  8
0
100
AcDbText
 62
5
  6
CONTINUOUS
 10
470.4464512169
 20
962.105668621
  7
TEXTSTYLE_3
 40
7.5
  1
-0.3
 50
-8.9948047494
 41
0.6964285714
 72
0
100
AcDbText
  0
LINE
  5
36B
100
AcDbEntity
  8
0
100
AcDbLine
 62
2
  6
CONTINUOUS
 10
373.6814147844
 20
973.6260609782
 11
292.1959567929
 21
986.5245157661
  0
LINE
  5
36C
100
AcDbEntity
  8
0
100
AcDbLine
 62
2
  6
CONTINUOUS
 10
292.1959567929
 20
986.5245157661
 11
490.4960854906
 21
955.1352923699
  0
LINE
  5
36D
100
AcDbEntity
  8
0
100
AcDbLine
 62
2
  6
CONTINUOUS
 10
210.7104988014
 20
999.4229705539
 11
292.1959567929
 21
986.5245157661
  0
INSERT
  5
36E
100
AcDbEntity
  8
0
100
AcDbBlockReference
 62
2
  6
CONTINUOUS
  2
_FILLED
 10
373.6814147844
 20
973.6260609782
 41
17.5
 42
17.5
 43
17.5
 50
351.0051952506
  0
INSERT
  5
36F
100
AcDbEntity
  8
0
100
AcDbBlockReference
 62
2
  6
CONTINUOUS
  2
_FILLED
 10
210.7104988014
 20
999.4229705539
 41
17.5
 42
17.5
 43
17.5
 50
171.0051952506
  0
ENDBLK
  5
370
100
AcDbEntity
  8
0
  6
BYBLOCK
 62
0
100
AcDbBlockEnd
  0
BLOCK
  5
371
100
AcDbEntity
  8
ZEICHNUNGSBEMASSUNGEN
100
AcDbBlockBegin
 62
2
  6
CONTINUOUS
  2
*D18
 70
65
 10
0.0
 20
0.0
  3
*D18
  1

  0
MTEXT
  5
372
100
AcDbEntity
  8
ZEICHNUNGSBEMASSUNGEN
100
AcDbMText
 62
5
  6
CONTINUOUS
  7
STANDARD
 71
3
 72
1
 10
1062.031232991
 20
1098.1495157661
 30
0.0
 11
1.0
 21
0.0
 31
0.0
 44
0.9
  1
20
 40
12.5
 41
19.6428571429
  0
LINE
  5
373
100
AcDbEntity
  8
ZEICHNUNGSBEMASSUNGEN
100
AcDbLine
 62
2
  6
CONTINUOUS
 10
1090.5793319903
 20
1054.0245157661
 11
1090.5793319903
 21
1090.0245157661
  0
LINE
  5
374
100
AcDbEntity
  8
ZEICHNUNGSBEMASSUNGEN
100
AcDbLine
 62
2
  6
CONTINUOUS
 10
1110.5792722349
 20
1054.0245157661
 11
1110.5792722349
 21
1090.0245157661
  0
LINE
  5
375
100
AcDbEntity
  8
ZEICHNUNGSBEMASSUNGEN
100
AcDbLine
 62
2
  6
CONTINUOUS
 10
1090.5793319903
 20
1082.5245157661
 11
1042.3883758482
 21
1082.5245157661
  0
LINE
  5
376
100
AcDbEntity
  8
ZEICHNUNGSBEMASSUNGEN
100
AcDbLine
 62
2
  6
CONTINUOUS
 10
1042.3883758482
 20
1082.5245157661
 11
1100.5793021126
 21
1082.5245157661
  0
LINE
  5
377
100
AcDbEntity
  8
ZEICHNUNGSBEMASSUNGEN
100
AcDbLine
 62
2
  6
CONTINUOUS
 10
1110.5792722349
 20
1082.5245157661
 11
1140.5792722349
 21
1082.5245157661
  0
LINE
  5
378
100
AcDbEntity
  8
ZEICHNUNGSBEMASSUNGEN
100
AcDbLine
 62
2
  6
CONTINUOUS
 10
1140.5792722349
 20
1082.5245157661
 11
1100.5793021126
 21
1082.5245157661
  0
INSERT
  5
379
100
AcDbEntity
  8
ZEICHNUNGSBEMASSUNGEN
100
AcDbBlockReference
 62
2
  6
CONTINUOUS
  2
_FILLED
 10
1090.5793319903
 20
1082.5245157661
 41
17.5
 42
17.5
 43
17.5
  0
INSERT
  5
37A
100
AcDbEntity
  8
ZEICHNUNGSBEMASSUNGEN
100
AcDbBlockReference
 62
2
  6
CONTINUOUS
  2
_FILLED
 10
1110.5792722349
 20
1082.5245157661
 41
17.5
 42
17.5
 43
17.5
 50
180.0
  0
ENDBLK
  5
37B
100
AcDbEntity
  8
0
  6
BYBLOCK
 62
0
100
AcDbBlockEnd
  0
BLOCK
  5
37C
100
AcDbEntity
  8
0
100
AcDbBlockBegin
 62
2
  6
CONTINUOUS
  2
*D19
 70
65
 10
0.0
 20
0.0
  3
*D19
  1

  0
MTEXT
  5
37D
100
AcDbEntity
  8
0
100
AcDbMText
 62
5
  6
CONTINUOUS
  7
STANDARD
 71
2
 72
1
 10
904.8293319903
 20
1117.1495157661
 30
0.0
 11
1.0
 21
0.0
 31
0.0
 44
0.9
  1
102.5
 40
12.5
 41
42.8571428571
  0
LINE
  5
37E
100
AcDbEntity
  8
0
100
AcDbLine
 62
2
  6
CONTINUOUS
 10
956.0793319903
 20
1084.0245157661
 11
956.0793319903
 21
1109.0245157661
  0
LINE
  5
37F
100
AcDbEntity
  8
0
100
AcDbLine
 62
2
  6
CONTINUOUS
 10
853.5793319903
 20
1084.0245157661
 11
853.5793319903
 21
1109.0245157661
  0
LINE
  5
380
100
AcDbEntity
  8
0
100
AcDbLine
 62
2
  6
CONTINUOUS
 10
956.0793319903
 20
1101.5245157661
 11
904.8293319903
 21
1101.5245157661
  0
LINE
  5
381
100
AcDbEntity
  8
0
100
AcDbLine
 62
2
  6
CONTINUOUS
 10
853.5793319903
 20
1101.5245157661
 11
904.8293319903
 21
1101.5245157661
  0
INSERT
  5
382
100
AcDbEntity
  8
0
100
AcDbBlockReference
 62
2
  6
CONTINUOUS
  2
_FILLED
 10
956.0793319903
 20
1101.5245157661
 41
17.5
 42
17.5
 43
17.5
  0
INSERT
  5
383
100
AcDbEntity
  8
0
100
AcDbBlockReference
 62
2
  6
CONTINUOUS
  2
_FILLED
 10
853.5793319903
 20
1101.5245157661
 41
17.5
 42
17.5
 43
17.5
 50
180.0
  0
ENDBLK
  5
384
100
AcDbEntity
  8
0
  6
BYBLOCK
 62
0
100
AcDbBlockEnd
  0
BLOCK
  5
385
100
AcDbEntity
  8
0
100
AcDbBlockBegin
 62
2
  6
CONTINUOUS
  2
*D20
 70
65
 10
0.0
 20
0.0
  3
*D20
  1

  0
MTEXT
  5
386
100
AcDbEntity
  8
0
100
AcDbMText
 62
5
  6
CONTINUOUS
  7
TEXTSTYLE_2
 71
2
 72
1
 10
1799.5159869559
 20
1157.1495157661
 30
0.0
 11
1.0
 21
0.0
 31
0.0
 44
0.9
  1
{\Fgdt;o}\Ftxt;190
 40
12.5
 41
43.9732142857
  0
LINE
  5
387
100
AcDbEntity
  8
0
100
AcDbLine
 62
2
  6
CONTINUOUS
 10
1704.5159869559
 20
1064.7654654981
 11
1704.5159869559
 21
1149.0245157661
  0
LINE
  5
388
100
AcDbEntity
  8
0
100
AcDbLine
 62
2
  6
CONTINUOUS
 10
1894.5159869559
 20
1064.6559931872
 11
1894.5159869559
 21
1149.0245157661
  0
LINE
  5
389
100
AcDbEntity
  8
0
100
AcDbLine
 62
2
  6
CONTINUOUS
 10
1704.5159869559
 20
1141.5245157661
 11
1799.5159869559
 21
1141.5245157661
  0
LINE
  5
38A
100
AcDbEntity
  8
0
100
AcDbLine
 62
2
  6
CONTINUOUS
 10
1894.5159869559
 20
1141.5245157661
 11
1799.5159869559
 21
1141.5245157661
  0
INSERT
  5
38B
100
AcDbEntity
  8
0
100
AcDbBlockReference
 62
2
  6
CONTINUOUS
  2
_FILLED
 10
1704.5159869559
 20
1141.5245157661
 41
17.5
 42
17.5
 43
17.5
 50
180.0
  0
INSERT
  5
38C
100
AcDbEntity
  8
0
100
AcDbBlockReference
 62
2
  6
CONTINUOUS
  2
_FILLED
 10
1894.5159869559
 20
1141.5245157661
 41
17.5
 42
17.5
 43
17.5
  0
ENDBLK
  5
38D
100
AcDbEntity
  8
0
  6
BYBLOCK
 62
0
100
AcDbBlockEnd
  0
BLOCK
  5
38E
100
AcDbEntity
  8
0
100
AcDbBlockBegin
 62
2
  6
CONTINUOUS
  2
*D21
 70
65
 10
0.0
 20
0.0
  3
*D21
  1

  0
MTEXT
  5
38F
100
AcDbEntity
  8
0
100
AcDbMText
 62
5
  6
CONTINUOUS
  7
TEXTSTYLE_2
 71
3
 72
1
 10
1678.461410985
 20
909.0131487106
 30
0.0
 11
0.7785511795
 21
0.627581119
 31
0.0
 44
0.9
  1
{\Fgdt;n}\Ftxt;240
 40
12.5
 41
46.130952381
  0
LINE
  5
390
100
AcDbEntity
  8
0
100
AcDbLine
 62
2
  6
CONTINUOUS
 10
1706.0898454161
 20
911.2147814884
 11
1799.5159869559
 21
986.5245157661
  0
LINE
  5
391
100
AcDbEntity
  8
0
100
AcDbLine
 62
2
  6
CONTINUOUS
 10
1799.5159869559
 20
986.5245157661
 11
1652.3520585815
 21
867.8973718161
  0
LINE
  5
392
100
AcDbEntity
  8
0
100
AcDbLine
 62
2
  6
CONTINUOUS
 10
1892.9421284957
 20
1061.8342500438
 11
1799.5159869559
 21
986.5245157661
  0
INSERT
  5
393
100
AcDbEntity
  8
0
100
AcDbBlockReference
 62
2
  6
CONTINUOUS
  2
_FILLED
 10
1706.0898454161
 20
911.2147814884
 41
17.5
 42
17.5
 43
17.5
 50
218.8718864941
  0
INSERT
  5
394
100
AcDbEntity
  8
0
100
AcDbBlockReference
 62
2
  6
CONTINUOUS
  2
_FILLED
 10
1892.9421284957
 20
1061.8342500438
 41
17.5
 42
17.5
 43
17.5
 50
38.8718864941
  0
ENDBLK
  5
395
100
AcDbEntity
  8
0
  6
BYBLOCK
 62
0
100
AcDbBlockEnd
  0
BLOCK
  5
396
100
AcDbEntity
  8
0
100
AcDbBlockBegin
 62
2
  6
CONTINUOUS
  2
*D22
 70
65
 10
0.0
 20
0.0
  3
*D22
  1

  0
MTEXT
  5
397
100
AcDbEntity
  8
0
100
AcDbMText
 62
5
  6
CONTINUOUS
  7
TEXTSTYLE_2
 71
1
 72
1
 10
1909.378487062
 20
845.3766542641
 30
0.0
 11
0.5429379995
 21
-0.8397727839
 31
0.0
 44
0.9
  1
{\Fgdt;n}\Ftxt;200
 40
12.5
 41
46.130952381
  0
LINE
  5
398
100
AcDbEntity
  8
0
100
AcDbLine
 62
2
  6
CONTINUOUS
 10
1853.8097869109
 20
902.5472373722
 11
1799.5159869559
 21
986.5245157661
  0
LINE
  5
399
100
AcDbEntity
  8
0
100
AcDbLine
 62
2
  6
CONTINUOUS
 10
1799.5159869559
 20
986.5245157661
 11
1921.303284316
 21
798.1537297144
  0
LINE
  5
39A
100
AcDbEntity
  8
0
100
AcDbLine
 62
2
  6
CONTINUOUS
 10
1745.2221870009
 20
1070.50179416
 11
1799.5159869559
 21
986.5245157661
  0
INSERT
  5
39B
100
AcDbEntity
  8
0
100
AcDbBlockReference
 62
2
  6
CONTINUOUS
  2
_FILLED
 10
1853.8097869109
 20
902.5472373722
 41
17.5
 42
17.5
 43
17.5
 50
302.8838660602
  0
INSERT
  5
39C
100
AcDbEntity
  8
0
100
AcDbBlockReference
 62
2
  6
CONTINUOUS
  2
_FILLED
 10
1745.2221870009
 20
1070.50179416
 41
17.5
 42
17.5
 43
17.5
 50
122.8838660602
  0
ENDBLK
  5
39D
100
AcDbEntity
  8
0
  6
BYBLOCK
 62
0
100
AcDbBlockEnd
  0
BLOCK
  5
39E
100
AcDbEntity
  8
0
100
AcDbBlockBegin
 62
2
  6
CONTINUOUS
  2
*D23
 70
65
 10
0.0
 20
0.0
  3
*D23
  1

  0
MTEXT
  5
39F
100
AcDbEntity
  8
0
100
AcDbMText
 62
5
  6
CONTINUOUS
  7
STANDARD
 71
3
 72
1
 10
1757.8441688775
 20
1122.1495157661
 30
0.0
 11
1.0
 21
0.0
 31
0.0
 44
0.9
  1
M12
 40
12.5
 41
27.6785714286
  0
LINE
  5
3A0
100
AcDbEntity
  8
0
100
AcDbLine
 62
2
  6
CONTINUOUS
 10
1864.2264717548
 20
1057.5855657636
 11
1864.1954448998
 21
1114.082922207
  0
LINE
  5
3A1
100
AcDbEntity
  8
0
100
AcDbLine
 62
2
  6
CONTINUOUS
 10
1876.2264752231
 20
1057.5825453095
 11
1876.1954430903
 21
1114.0895122889
  0
LINE
  5
3A2
100
AcDbEntity
  8
0
100
AcDbLine
 62
2
  6
CONTINUOUS
 10
1864.199563701
 20
1106.582923338
 11
1730.1655974489
 21
1106.5245157661
  0
LINE
  5
3A3
100
AcDbEntity
  8
0
100
AcDbLine
 62
2
  6
CONTINUOUS
 10
1730.1655974489
 20
1106.5245157661
 11
1870.1995627962
 21
1106.5862183789
  0
LINE
  5
3A4
100
AcDbEntity
  8
0
100
AcDbLine
 62
2
  6
CONTINUOUS
 10
1876.1995618914
 20
1106.5895134198
 11
1906.1995573676
 21
1106.6059886245
  0
LINE
  5
3A5
100
AcDbEntity
  8
0
100
AcDbLine
 62
2
  6
CONTINUOUS
 10
1906.1995573676
 20
1106.6059886245
 11
1870.1995627962
 21
1106.5862183789
  0
INSERT
  5
3A6
100
AcDbEntity
  8
0
100
AcDbBlockReference
 62
2
  6
CONTINUOUS
  2
_FILLED
 10
1864.199563701
 20
1106.582923338
 41
17.5
 42
17.5
 43
17.5
 50
0.0249676052
  0
INSERT
  5
3A7
100
AcDbEntity
  8
0
100
AcDbBlockReference
 62
2
  6
CONTINUOUS
  2
_FILLED
 10
1876.1995618914
 20
1106.5895134198
 41
17.5
 42
17.5
 43
17.5
 50
180.0314653246
  0
ENDBLK
  5
3A8
100
AcDbEntity
  8
0
  6
BYBLOCK
 62
0
100
AcDbBlockEnd
  0
BLOCK
  5
3A9
100
AcDbEntity
  8
0
100
AcDbBlockBegin
 62
2
  6
CONTINUOUS
  2
*D24
 70
65
 10
0.0
 20
0.0
  3
*D24
  1

  0
MTEXT
  5
3AA
100
AcDbEntity
  8
0
100
AcDbMText
 62
5
  6
CONTINUOUS
  7
TEXTSTYLE_2
 71
3
 72
1
 10
762.9543319903
 20
946.2175744507
 30
0.0
 11
0.0
 21
1.0
 31
0.0
 44
0.9
  1
{\Fgdt;n}\Ftxt;42
 40
12.5
 41
36.3095238095
  0
LINE
  5
3AB
100
AcDbEntity
  8
0
100
AcDbLine
 62
2
  6
CONTINUOUS
 10
915.5793319903
 20
965.5245157661
 11
771.0793319903
 21
965.5245157661
  0
LINE
  5
3AC
100
AcDbEntity
  8
0
100
AcDbLine
 62
2
  6
CONTINUOUS
 10
915.5793319903
 20
1007.5245157661
 11
771.0793319903
 21
1007.5245157661
  0
LINE
  5
3AD
100
AcDbEntity
  8
0
100
AcDbLine
 62
2
  6
CONTINUOUS
 10
778.5793319903
 20
965.5245157661
 11
778.5793319903
 21
909.9080506412
  0
LINE
  5
3AE
100
AcDbEntity
  8
0
100
AcDbLine
 62
2
  6
CONTINUOUS
 10
778.5793319903
 20
909.9080506412
 11
778.5793319903
 21
986.5245157661
  0
LINE
  5
3AF
100
AcDbEntity
  8
0
100
AcDbLine
 62
2
  6
CONTINUOUS
 10
778.5793319903
 20
1007.5245157661
 11
778.5793319903
 21
1037.5245157661
  0
LINE
  5
3B0
100
AcDbEntity
  8
0
100
AcDbLine
 62
2
  6
CONTINUOUS
 10
778.5793319903
 20
1037.5245157661
 11
778.5793319903
 21
986.5245157661
  0
INSERT
  5
3B1
100
AcDbEntity
  8
0
100
AcDbBlockReference
 62
2
  6
CONTINUOUS
  2
_FILLED
 10
778.5793319903
 20
965.5245157661
 41
17.5
 42
17.5
 43
17.5
 50
90.0
  0
INSERT
  5
3B2
100
AcDbEntity
  8
0
100
AcDbBlockReference
 62
2
  6
CONTINUOUS
  2
_FILLED
 10
778.5793319903
 20
1007.5245157661
 41
17.5
 42
17.5
 43
17.5
 50
270.0
  0
ENDBLK
  5
3B3
100
AcDbEntity
  8
0
  6
BYBLOCK
 62
0
100
AcDbBlockEnd
  0
BLOCK
  5
3B4
100
AcDbEntity
  8
0
100
AcDbBlockBegin
 62
2
  6
CONTINUOUS
  2
*D25
 70
65
 10
0.0
 20
0.0
  3
*D25
  1

  0
MTEXT
  5
3B5
100
AcDbEntity
  8
0
100
AcDbMText
 62
5
  6
CONTINUOUS
  7
STANDARD
 71
2
 72
1
 10
910.0793319903
 20
847.1495157661
 30
0.0
 11
1.0
 21
0.0
 31
0.0
 44
0.9
  1
113
 40
12.5
 41
23.2142857143
  0
LINE
  5
3B6
100
AcDbEntity
  8
0
100
AcDbLine
 62
2
  6
CONTINUOUS
 10
853.5793319903
 20
889.0245157661
 11
853.5793319903
 21
824.0245157661
  0
LINE
  5
3B7
100
AcDbEntity
  8
0
100
AcDbLine
 62
2
  6
CONTINUOUS
 10
966.5793319903
 20
968.0379128966
 11
966.5793319903
 21
824.0245157661
  0
LINE
  5
3B8
100
AcDbEntity
  8
0
100
AcDbLine
 62
2
  6
CONTINUOUS
 10
853.5793319903
 20
831.5245157661
 11
910.0793319903
 21
831.5245157661
  0
LINE
  5
3B9
100
AcDbEntity
  8
0
100
AcDbLine
 62
2
  6
CONTINUOUS
 10
966.5793319903
 20
831.5245157661
 11
910.0793319903
 21
831.5245157661
  0
INSERT
  5
3BA
100
AcDbEntity
  8
0
100
AcDbBlockReference
 62
2
  6
CONTINUOUS
  2
_FILLED
 10
853.5793319903
 20
831.5245157661
 41
17.5
 42
17.5
 43
17.5
 50
180.0
  0
INSERT
  5
3BB
100
AcDbEntity
  8
0
100
AcDbBlockReference
 62
2
  6
CONTINUOUS
  2
_FILLED
 10
966.5793319903
 20
831.5245157661
 41
17.5
 42
17.5
 43
17.5
  0
ENDBLK
  5
3BC
100
AcDbEntity
  8
0
  6
BYBLOCK
 62
0
100
AcDbBlockEnd
  0
BLOCK
  5
3BD
100
AcDbEntity
  8
0
100
AcDbBlockBegin
 62
2
  6
CONTINUOUS
  2
*D26
 70
65
 10
0.0
 20
0.0
  3
*D26
  1

  0
MTEXT
  5
3BE
100
AcDbEntity
  8
0
100
AcDbMText
 62
5
  6
CONTINUOUS
  7
STANDARD
 71
2
 72
1
 10
926.3293319903
 20
1173.1495157661
 30
0.0
 11
1.0
 21
0.0
 31
0.0
 44
0.9
  1
145.5
 40
12.5
 41
41.9642857143
  0
LINE
  5
3BF
100
AcDbEntity
  8
0
100
AcDbLine
 62
2
  6
CONTINUOUS
 10
853.5793319903
 20
1084.0245157661
 11
853.5793319903
 21
1165.0245157661
  0
LINE
  5
3C0
100
AcDbEntity
  8
0
100
AcDbLine
 62
2
  6
CONTINUOUS
 10
999.0793319903
 20
1084.0245157661
 11
999.0793319903
 21
1165.0245157661
  0
LINE
  5
3C1
100
AcDbEntity
  8
0
100
AcDbLine
 62
2
  6
CONTINUOUS
 10
853.5793319903
 20
1157.5245157661
 11
926.3293319903
 21
1157.5245157661
  0
LINE
  5
3C2
100
AcDbEntity
  8
0
100
AcDbLine
 62
2
  6
CONTINUOUS
 10
999.0793319903
 20
1157.5245157661
 11
926.3293319903
 21
1157.5245157661
  0
INSERT
  5
3C3
100
AcDbEntity
  8
0
100
AcDbBlockReference
 62
2
  6
CONTINUOUS
  2
_FILLED
 10
853.5793319903
 20
1157.5245157661
 41
17.5
 42
17.5
 43
17.5
 50
180.0
  0
INSERT
  5
3C4
100
AcDbEntity
  8
0
100
AcDbBlockReference
 62
2
  6
CONTINUOUS
  2
_FILLED
 10
999.0793319903
 20
1157.5245157661
 41
17.5
 42
17.5
 43
17.5
  0
ENDBLK
  5
3C5
100
AcDbEntity
  8
0
  6
BYBLOCK
 62
0
100
AcDbBlockEnd
  0
BLOCK
  5
3C6
100
AcDbEntity
  8
0
100
AcDbBlockBegin
 62
2
  6
CONTINUOUS
  2
*D27
 70
65
 10
0.0
 20
0.0
  3
*D27
  1

  0
MTEXT
  5
3C7
100
AcDbEntity
  8
0
100
AcDbMText
 62
5
  6
CONTINUOUS
  7
STANDARD
 71
3
 72
1
 10
816.1656108274
 20
882.1495157661
 30
0.0
 11
1.0
 21
0.0
 31
0.0
 44
0.9
  1
6.25
 40
12.5
 41
35.7142857143
  0
LINE
  5
3C8
100
AcDbEntity
  8
0
100
AcDbLine
 62
2
  6
CONTINUOUS
 10
853.5793319903
 20
929.0245157661
 11
853.5793319903
 21
859.0245157661
  0
LINE
  5
3C9
100
AcDbEntity
  8
0
100
AcDbLine
 62
2
  6
CONTINUOUS
 10
859.8293319903
 20
929.0245157661
 11
859.8293319903
 21
859.0245157661
  0
LINE
  5
3CA
100
AcDbEntity
  8
0
100
AcDbLine
 62
2
  6
CONTINUOUS
 10
853.5793319903
 20
866.5245157661
 11
780.4513251131
 21
866.5245157661
  0
LINE
  5
3CB
100
AcDbEntity
  8
0
100
AcDbLine
 62
2
  6
CONTINUOUS
 10
780.4513251131
 20
866.5245157661
 11
856.7043319903
 21
866.5245157661
  0
LINE
  5
3CC
100
AcDbEntity
  8
0
100
AcDbLine
 62
2
  6
CONTINUOUS
 10
859.8293319903
 20
866.5245157661
 11
889.8293319903
 21
866.5245157661
  0
LINE
  5
3CD
100
AcDbEntity
  8
0
100
AcDbLine
 62
2
  6
CONTINUOUS
 10
889.8293319903
 20
866.5245157661
 11
856.7043319903
 21
866.5245157661
  0
INSERT
  5
3CE
100
AcDbEntity
  8
0
100
AcDbBlockReference
 62
2
  6
CONTINUOUS
  2
_FILLED
 10
853.5793319903
 20
866.5245157661
 41
17.5
 42
17.5
 43
17.5
  0
INSERT
  5
3CF
100
AcDbEntity
  8
0
100
AcDbBlockReference
 62
2
  6
CONTINUOUS
  2
_FILLED
 10
859.8293319903
 20
866.5245157661
 41
17.5
 42
17.5
 43
17.5
 50
180.0
  0
ENDBLK
  5
3D0
100
AcDbEntity
  8
0
  6
BYBLOCK
 62
0
100
AcDbBlockEnd
  0
BLOCK
  5
3D1
100
AcDbEntity
  8
0
100
AcDbBlockBegin
 62
2
  6
CONTINUOUS
  2
*D28
 70
65
 10
0.0
 20
0.0
  3
*D28
  1

  0
MTEXT
  5
3D2
100
AcDbEntity
  8
0
100
AcDbMText
 62
5
  6
CONTINUOUS
  7
TEXTSTYLE_2
 71
2
 72
1
 10
712.9543319903
 20
986.5245157661
 30
0.0
 11
0.0
 21
1.0
 31
0.0
 44
0.9
  1
{\Fgdt;n}\Ftxt;114.3
 40
12.5
 41
56.8452380952
  0
LINE
  5
3D3
100
AcDbEntity
  8
0
100
AcDbLine
 62
2
  6
CONTINUOUS
 10
846.0793319903
 20
1043.6745157661
 11
721.0793319903
 21
1043.6745157661
  0
LINE
  5
3D4
100
AcDbEntity
  8
0
100
AcDbLine
 62
2
  6
CONTINUOUS
 10
846.0793319903
 20
929.3745157661
 11
721.0793319903
 21
929.3745157661
  0
LINE
  5
3D5
100
AcDbEntity
  8
0
100
AcDbLine
 62
2
  6
CONTINUOUS
 10
728.5793319903
 20
1043.6745157661
 11
728.5793319903
 21
986.5245157661
  0
LINE
  5
3D6
100
AcDbEntity
  8
0
100
AcDbLine
 62
2
  6
CONTINUOUS
 10
728.5793319903
 20
929.3745157661
 11
728.5793319903
 21
986.5245157661
  0
INSERT
  5
3D7
100
AcDbEntity
  8
0
100
AcDbBlockReference
 62
2
  6
CONTINUOUS
  2
_FILLED
 10
728.5793319903
 20
1043.6745157661
 41
17.5
 42
17.5
 43
17.5
 50
90.0
  0
INSERT
  5
3D8
100
AcDbEntity
  8
0
100
AcDbBlockReference
 62
2
  6
CONTINUOUS
  2
_FILLED
 10
728.5793319903
 20
929.3745157661
 41
17.5
 42
17.5
 43
17.5
 50
270.0
  0
ENDBLK
  5
3D9
100
AcDbEntity
  8
0
  6
BYBLOCK
 62
0
100
AcDbBlockEnd
  0
ENDSEC
  0
SECTION
  2
ENTITIES
  0
DIMENSION
  5
3DA
100
AcDbEntity
  8
ZEICHNUNGSBEMASSUNGEN
100
AcDbDimension
 62
2
  6
CONTINUOUS
  2
*D0
 10
853.5793319903
 20
1207.5245157661
 11
996.3309827062
 21
1216.8995157661
 70
160
 71
2
 42
347.0
  3
DIMSTYLE_1
100
AcDbAlignedDimension
 13
1200.5793319903
 23
1009.0245157661
 14
853.5793319903
 24
975.9942469034
 50
180.0
100
AcDbRotatedDimension
  0
DIMENSION
  5
3DB
100
AcDbEntity
  8
ZEICHNUNGSBEMASSUNGEN
100
AcDbDimension
 62
2
  6
CONTINUOUS
  2
*D1
 10
999.0793319903
 20
1157.5245157661
 11
1028.3114748474
 21
1166.8995157661
 70
160
 71
2
 42
91.5
  3
DIMSTYLE_2
100
AcDbAlignedDimension
 13
1090.5793319903
 23
1054.0245157661
 14
999.0793319903
 24
926.9625395863
 50
180.0
100
AcDbRotatedDimension
  0
DIMENSION
  5
3DC
100
AcDbEntity
  8
0
100
AcDbDimension
 62
2
  6
CONTINUOUS
  2
*D2
 10
363.1959567929
 20
1161.5245157661
 11
281.2026532215
 21
1170.8995157661
 70
160
 71
2
 42
142.0
  1
{\Fgdt;o}<>
  3
DIMSTYLE_3
100
AcDbAlignedDimension
 13
221.1959567929
 23
1049.8748039895
 14
363.1959567929
 24
1049.8748039895
100
AcDbRotatedDimension
  0
DIMENSION
  5
3DD
100
AcDbEntity
  8
0
100
AcDbDimension
 62
2
  6
CONTINUOUS
  2
*D3
 10
357.8171169419
 20
921.3316224364
 11
408.8914424427
 21
883.805684939
 70
163
 71
1
 42
185.0
  1
<>
  3
DIMSTYLE_4
100
AcDbDiametricDimension
 15
226.5747966439
 25
1051.7174090958
  0
DIMENSION
  5
3DE
100
AcDbEntity
  8
0
100
AcDbDimension
 62
2
  6
CONTINUOUS
  2
*D4
 10
1090.5793319903
 20
1107.5245157661
 11
1038.2361506662
 21
1116.8995157661
 70
160
 71
3
 42
28.0
  3
DIMSTYLE_5
100
AcDbAlignedDimension
 13
1118.5793319903
 23
1054.0245157661
 14
1090.5793319903
 24
1054.0245157661
 50
180.0
100
AcDbRotatedDimension
  0
DIMENSION
  5
3DF
100
AcDbEntity
  8
0
100
AcDbDimension
 62
2
  6
CONTINUOUS
  2
*D5
 10
1375.5793319903
 20
1051.5245157661
 11
1370.9717819238
 21
972.6907015944
 70
160
 71
2
 42
130.0
  1
%%c<>
  3
DIMSTYLE_6
100
AcDbAlignedDimension
 13
1093.0793319903
 23
921.5245157661
 14
1093.0793319903
 24
1051.5245157661
 50
90.0
100
AcDbRotatedDimension
  0
LEADER
  5
3E0
100
AcDbEntity
  8
0
100
AcDbLeader
 62
2
  6
CONTINUOUS
  3
STANDARD
 71
1
 72
0
 73
2
 75
0
 76
3
 10
1375.5793319903
 20
921.5245157661
 30
0.0
 10
1375.5793319903
 20
840.5245157661
 30
0.0
 10
1363.3486994308
 20
840.5245157661
 30
0.0
340
3E1
1001
ACAD
1000
DSTYLE
1002
{
1070
77
1070
0
1002
}
  0
INSERT
  5
3E1
102
{ACAD_REACTORS
330
3E0
102
}
100
AcDbEntity
  8
0
100
AcDbBlockReference
 62
2
  6
CONTINUOUS
  2
SYMBOL_64_BL0
 10
1290.8486994308
 20
839.2305619768
  0
INSERT
  5
3E2
100
AcDbEntity
  8
0
100
AcDbBlockReference
 62
2
  6
CONTINUOUS
  2
SYMBOL_38_BL1
 10
1375.5793319903
 20
1082.7745157661
  0
DIMENSION
  5
3E3
100
AcDbEntity
  8
0
100
AcDbDimension
 62
2
  6
CONTINUOUS
  2
*D6
 10
1325.5262989241
 20
951.187090552
 11
1315.152576464
 21
979.635165487
 70
160
 71
2
 42
70.0
  1
%%c<>
  3
DIMSTYLE_7
100
AcDbAlignedDimension
 13
1123.0793319903
 23
1021.5172260778
 14
1123.0793319903
 24
951.517133056
 50
269.906592694
100
AcDbRotatedDimension
  0
DIMENSION
  5
3E4
100
AcDbEntity
  8
0
100
AcDbDimension
 62
2
  6
CONTINUOUS
  2
*D7
 10
1200.5793319903
 20
1132.5245157661
 11
1150.7579034189
 21
1141.8995157661
 70
160
 71
2
 42
80.0
  3
DIMSTYLE_2
100
AcDbAlignedDimension
 13
1120.5793319903
 23
1024.0245157661
 14
1200.5793319903
 24
1009.0245157661
100
AcDbRotatedDimension
  0
DIMENSION
  5
3E5
100
AcDbEntity
  8
0
100
AcDbDimension
 62
2
  6
CONTINUOUS
  2
*D8
 10
1275.5793319903
 20
1006.5245157661
 11
1274.3390018069
 21
877.13945729
 70
160
 71
3
 42
40.0
  1
%%c<>
  3
DIMSTYLE_8
100
AcDbAlignedDimension
 13
1203.0793319903
 23
966.5245157661
 14
1203.0793319903
 24
1006.5245157661
 50
90.0
100
AcDbRotatedDimension
  0
LEADER
  5
3E6
100
AcDbEntity
  8
0
100
AcDbLeader
 62
2
  6
CONTINUOUS
  3
STANDARD
 71
1
 72
0
 73
2
 75
0
 76
3
 10
1263.8642024046
 20
1006.5245157661
 30
0.0
 10
1264.0774046703
 20
1157.5245157661
 30
0.0
 10
1276.9510466137
 20
1157.5245157661
 30
0.0
340
3E7
1001
ACAD
1000
DSTYLE
1002
{
1070
77
1070
0
1002
}
  0
INSERT
  5
3E7
102
{ACAD_REACTORS
330
3E6
102
}
100
AcDbEntity
  8
0
100
AcDbBlockReference
 62
2
  6
CONTINUOUS
  2
SYMBOL_47_BL2
 10
1356.9510261439
 20
1156.8015240848
  0
DIMENSION
  5
3E8
100
AcDbEntity
  8
0
100
AcDbDimension
 62
2
  6
CONTINUOUS
  2
*D9
 10
170.6959567929
 20
966.5245157661
 11
161.3209567929
 21
1037.3821485057
 70
160
 71
1
 42
43.0
  3
DIMSTYLE_9
100
AcDbAlignedDimension
 13
283.6959567929
 23
1009.5245157661
 14
283.6959567929
 24
966.5245157661
 50
270.0
100
AcDbRotatedDimension
  0
DIMENSION
  5
3E9
100
AcDbEntity
  8
0
100
AcDbDimension
 62
2
  6
CONTINUOUS
  2
*D10
 10
286.1959567929
 20
1136.5245157661
 11
239.2609005204
 21
1145.8995157661
 70
160
 71
3
 42
12.0
  3
DIMSTYLE_10
100
AcDbAlignedDimension
 13
298.1959567929
 23
1012.0245157661
 14
286.1959567929
 24
1012.0245157661
 50
180.0
100
AcDbRotatedDimension
  0
DIMENSION
  5
3EA
100
AcDbEntity
  8
0
100
AcDbDimension
 62
2
  6
CONTINUOUS
  2
*D11
 10
1192.5793319903
 20
1044.5245157661
 11
1155.9942947373
 21
1053.8995157661
 70
160
 71
3
 42
8.0
  3
DIMSTYLE_10
100
AcDbAlignedDimension
 13
1200.5793319903
 23
1009.0245157661
 14
1192.5793319903
 24
1012.0245157661
 50
180.0
100
AcDbRotatedDimension
  0
DIMENSION
  5
3EB
100
AcDbEntity
  8
0
100
AcDbDimension
 62
2
  6
CONTINUOUS
  2
*D12
 10
1127.5793319903
 20
1067.5245157661
 11
1150.7043319903
 21
1076.8995157661
 70
160
 71
2
 42
65.0
  3
DIMSTYLE_9
100
AcDbAlignedDimension
 13
1192.5793319903
 23
1012.0245157661
 14
1127.5793319903
 24
1012.0245157661
 50
180.0
100
AcDbRotatedDimension
  0
DIMENSION
  5
3EC
100
AcDbEntity
  8
0
100
AcDbDimension
 62
2
  6
CONTINUOUS
  2
*D13
 10
403.6003208037
 20
1105.7070543699
 11
452.095756172
 21
1070.4698711489
 70
160
 71
1
 42
11.0
  3
DIMSTYLE_10
100
AcDbAlignedDimension
 13
358.2230742653
 23
1044.7734586454
 14
350.693790323
 24
1052.8005238893
 50
135.0
100
AcDbRotatedDimension
  0
DIMENSION
  5
3ED
100
AcDbEntity
  8
ZEICHNUNGSBEMASSUNGEN
100
AcDbDimension
 62
2
  6
CONTINUOUS
  2
*D14
 10
1090.5793319903
 20
1157.5245157661
 11
1133.5257605617
 21
1166.8995157661
 70
160
 71
2
 42
110.0
  3
DIMSTYLE_2
100
AcDbAlignedDimension
 13
1200.5793319903
 23
1009.0245157661
 14
1090.5793319903
 24
1054.0245157661
 50
180.0
100
AcDbRotatedDimension
  0
DIMENSION
  5
3EE
100
AcDbEntity
  8
ZEICHNUNGSBEMASSUNGEN
100
AcDbDimension
 62
2
  6
CONTINUOUS
  2
*D15
 10
1167.1076833612
 20
926.4701298351
 11
1134.7432620268
 21
911.826358252
 70
162
 71
2
 42
0.0872664277
  3
DIMSTYLE_11
100
AcDb2LineAngularDimension
 13
1167.3236134482
 23
921.5245157661
 14
1118.0793314442
 24
921.5245157661
 15
1149.0473855749
 25
924.8900591545
 16
1159.776743557
 26
923.6725333309
  0
DIMENSION
  5
3EF
100
AcDbEntity
  8
ZEICHNUNGSBEMASSUNGEN
100
AcDbDimension
 62
2
  6
CONTINUOUS
  2
*D16
 10
1090.5793319903
 20
840.5245157661
 11
1027.2979671626
 21
849.8995157661
 70
160
 71
3
 42
12.0
  3
DIMSTYLE_5
100
AcDbAlignedDimension
 13
1078.5793319903
 23
910.5245157661
 14
1090.5793319903
 24
910.5245157661
100
AcDbRotatedDimension
  0
INSERT
  5
3F0
100
AcDbEntity
  8
0
100
AcDbBlockReference
 62
2
  6
CONTINUOUS
  2
SYMBOL_70_BL3
 10
1121.8293319903
 20
870.6812558272
  0
DIMENSION
  5
3F1
100
AcDbEntity
  8
0
100
AcDbDimension
 62
2
  6
CONTINUOUS
  2
*D17
 10
373.6814147844
 20
973.6260609782
 11
461.3097896367
 21
971.2071740166
 70
163
 71
1
 42
165.0
  1
 <>
  3
DIMSTYLE_12
100
AcDbDiametricDimension
 15
210.7104988014
 25
999.4229705539
  0
DIMENSION
  5
3F2
100
AcDbEntity
  8
ZEICHNUNGSBEMASSUNGEN
100
AcDbDimension
 62
2
  6
CONTINUOUS
  2
*D18
 10
1110.5792722349
 20
1082.5245157661
 11
1032.5669472767
 21
1091.8995157661
 70
160
 71
3
 42
19.9999402446
  3
DIMSTYLE_5
100
AcDbAlignedDimension
 13
1090.5793319903
 23
1054.0245157661
 14
1110.5792722349
 24
1054.0245157661
100
AcDbRotatedDimension
  0
DIMENSION
  5
3F3
100
AcDbEntity
  8
0
100
AcDbDimension
 62
2
  6
CONTINUOUS
  2
*D19
 10
853.5793319903
 20
1101.5245157661
 11
883.4007605617
 21
1110.8995157661
 70
160
 71
2
 42
102.5
  3
DIMSTYLE_2
100
AcDbAlignedDimension
 13
956.0793319903
 23
1084.0245157661
 14
853.5793319903
 24
1084.0245157661
 50
180.0
100
AcDbRotatedDimension
  0
DIMENSION
  5
3F4
100
AcDbEntity
  8
0
100
AcDbDimension
 62
2
  6
CONTINUOUS
  2
*D20
 10
1894.5159869559
 20
1141.5245157661
 11
1788.5226833845
 21
1150.8995157661
 70
160
 71
2
 42
190.0
  1
{\Fgdt;o}<>
  3
DIMSTYLE_1
100
AcDbAlignedDimension
 13
1704.5159869559
 23
1064.7654654981
 14
1894.5159869559
 24
1064.6559931872
100
AcDbRotatedDimension
  0
DIMENSION
  5
3F5
100
AcDbEntity
  8
0
100
AcDbDimension
 62
2
  6
CONTINUOUS
  2
*D21
 10
1706.0898454161
 20
911.2147814884
 11
1655.4860662564
 21
867.7405388135
 70
163
 71
3
 42
240.0
  1
<>
  3
DIMSTYLE_13
100
AcDbDiametricDimension
 15
1892.9421284957
 25
1061.8342500438
  0
DIMENSION
  5
3F6
100
AcDbEntity
  8
0
100
AcDbDimension
 62
2
  6
CONTINUOUS
  2
*D22
 10
1853.8097869109
 20
902.5472373722
 11
1916.6530306639
 21
822.6135326136
 70
163
 71
1
 42
200.0
  1
<>
  3
DIMSTYLE_13
100
AcDbDiametricDimension
 15
1745.2221870009
 25
1070.50179416
  0
DIMENSION
  5
3F7
100
AcDbEntity
  8
0
100
AcDbDimension
 62
2
  6
CONTINUOUS
  2
*D23
 10
1876.1995618914
 20
1106.5895134198
 11
1730.1655974489
 21
1115.8995157661
 70
160
 71
3
 42
12.0
  1
M<>
  3
DIMSTYLE_5
100
AcDbAlignedDimension
 13
1864.2264717548
 23
1057.5855657636
 14
1876.2264752231
 24
1057.5825453095
 50
0.0314653246
100
AcDbRotatedDimension
  0
DIMENSION
  5
3F8
100
AcDbEntity
  8
0
100
AcDbDimension
 62
2
  6
CONTINUOUS
  2
*D24
 10
778.5793319903
 20
1007.5245157661
 11
777.3390018069
 21
911.8325159746
 70
160
 71
3
 42
42.0
  1
%%c<>
  3
DIMSTYLE_2
100
AcDbAlignedDimension
 13
915.5793319903
 23
965.5245157661
 14
915.5793319903
 24
1007.5245157661
 50
90.0
100
AcDbRotatedDimension
  0
DIMENSION
  5
3F9
100
AcDbEntity
  8
0
100
AcDbDimension
 62
2
  6
CONTINUOUS
  2
*D25
 10
966.5793319903
 20
831.5245157661
 11
898.4721891331
 21
840.8995157661
 70
160
 71
2
 42
113.0
  3
DIMSTYLE_2
100
AcDbAlignedDimension
 13
853.5793319903
 23
889.0245157661
 14
966.5793319903
 24
968.0379128966
100
AcDbRotatedDimension
  0
DIMENSION
  5
3FA
100
AcDbEntity
  8
0
100
AcDbDimension
 62
2
  6
CONTINUOUS
  2
*D26
 10
999.0793319903
 20
1157.5245157661
 11
905.3471891331
 21
1166.8995157661
 70
160
 71
2
 42
145.5
  3
DIMSTYLE_1
100
AcDbAlignedDimension
 13
853.5793319903
 23
1084.0245157661
 14
999.0793319903
 24
1084.0245157661
100
AcDbRotatedDimension
  0
DIMENSION
  5
3FB
100
AcDbEntity
  8
0
100
AcDbDimension
 62
2
  6
CONTINUOUS
  2
*D27
 10
859.8293319903
 20
866.5245157661
 11
762.5941822559
 21
875.8995157661
 70
160
 71
3
 42
6.25
  3
DIMSTYLE_5
100
AcDbAlignedDimension
 13
853.5793319903
 23
929.0245157661
 14
859.8293319903
 24
929.0245157661
100
AcDbRotatedDimension
  0
DIMENSION
  5
3FC
100
AcDbEntity
  8
0
100
AcDbDimension
 62
2
  6
CONTINUOUS
  2
*D28
 10
728.5793319903
 20
929.3745157661
 11
725.5720448386
 21
973.8196524664
 70
160
 71
2
 42
114.3
  1
%%c<>
  3
DIMSTYLE_2
100
AcDbAlignedDimension
 13
846.0793319903
 23
1043.6745157661
 14
846.0793319903
 24
929.3745157661
 50
270.0
100
AcDbRotatedDimension
  0
LEADER
  5
3FD
100
AcDbEntity
  8
0
100
AcDbLeader
 62
2
  6
CONTINUOUS
  3
STANDARD
 71
1
 72
0
 73
0
 75
0
 40
12.5
 41
69.6428571429
 76
3
 10
1120.5793106454
 20
966.5245157661
 30
0.0
 10
1245.5793319903
 20
880.5245157661
 30
0.0
 10
1270.5793319903
 20
880.5245157661
 30
0.0
340
3FE
1001
ACAD
1000
DSTYLE
1002
{
1070
77
1070
0
1002
}
  0
MTEXT
  5
3FE
102
{ACAD_REACTORS
330
3FD
102
}
100
AcDbEntity
  8
0
100
AcDbMText
 62
5
  6
CONTINUOUS
  7
STANDARD
 71
1
 72
1
 10
1270.5793319903
 20
886.7745157661
 30
0.0
 11
1.0
 21
0.0
 31
0.0
 44
0.9
  1
max.R1.5
 40
12.5
 41
69.6428571429
  0
LEADER
  5
3FF
100
AcDbEntity
  8
0
100
AcDbLeader
 62
2
  6
CONTINUOUS
  3
STANDARD
 71
1
 72
0
 73
0
 75
0
 40
12.5
 41
113.6904761905
 76
3
 10
1182.8673587967
 20
1007.6548748689
 30
0.0
 10
1234.0793319903
 20
1207.5245157661
 30
0.0
 10
1259.0793319903
 20
1207.5245157661
 30
0.0
340
400
1001
ACAD
1000
DSTYLE
1002
{
1070
77
1070
0
1070
341
1005
21D
1002
}
  0
MTEXT
  5
400
102
{ACAD_REACTORS
330
3FF
102
}
100
AcDbEntity
  8
0
100
AcDbMText
 62
5
  6
CONTINUOUS
  7
STANDARD
 71
1
 72
1
 10
1259.0793319903
 20
1213.7745157661
 30
0.0
 11
1.0
 21
0.0
 31
0.0
 44
0.9
  1
Key DIN 6885\PA 12x8x65
 40
12.5
 41
113.6904761905
  0
LEADER
  5
401
100
AcDbEntity
  8
0
100
AcDbLeader
 62
2
  6
CONTINUOUS
  3
STANDARD
 71
1
 72
0
 73
0
 75
0
 40
12.5
 41
173.5119047619
 76
4
 10
1200.5793319903
 20
986.5245157661
 30
0.0
 10
1244.4413321597
 20
915.5750121015
 30
0.0
 10
1194.8142386557
 20
815.5245157661
 30
0.0
 10
1169.8142386557
 20
815.5245157661
 30
0.0
340
402
1001
ACAD
1000
DSTYLE
1002
{
1070
77
1070
0
1002
}
  0
MTEXT
  5
402
102
{ACAD_REACTORS
330
401
102
}
100
AcDbEntity
  8
0
100
AcDbMText
 62
5
  6
CONTINUOUS
  7
STANDARD
 71
1
 72
1
 10
996.3023338938
 20
821.7745157661
 30
0.0
 11
1.0
 21
0.0
 31
0.0
 44
0.9
  1
Centre bore DIN 332\PDR M16x35
 40
12.5
 41
173.5119047619
  0
MTEXT
  5
403
100
AcDbEntity
  8
0
100
AcDbMText
 62
5
  6
CONTINUOUS
  7
STANDARD
 71
1
 72
1
 10
1259.8816382032
 20
919.3078711145
 30
0.0
 11
0.0
 21
1.0
 31
0.0
 44
0.9
  1
k6
 40
12.5
 41
18.75
  0
MTEXT
  5
404
100
AcDbEntity
  8
0
100
AcDbMText
 62
5
  6
CONTINUOUS
  7
STANDARD
 71
1
 72
1
 10
1358.3897390123
 20
1013.5694653887
 30
0.0
 11
0.0
 21
1.0
 31
0.0
 44
0.9
  1
g7
 40
12.5
 41
18.75
  0
MTEXT
  5
405
100
AcDbEntity
  8
0
100
AcDbMText
 62
5
  6
CONTINUOUS
  7
STANDARD
 71
1
 72
1
 10
1331.2899436596
 20
1162.6446539992
 30
0.0
 11
1.0
 21
0.0
 31
0.0
 44
0.9
  1
0,04
 40
12.5
 41
36.6071428571
  0
MTEXT
  5
406
100
AcDbEntity
  8
0
100
AcDbMText
 62
5
  6
CONTINUOUS
  7
STANDARD
 71
1
 72
1
 10
1278.2764162282
 20
845.2089069245
 30
0.0
 11
1.0
 21
0.0
 31
0.0
 44
0.9
  1
0,03
 40
12.5
 41
35.7142857143
  0
MTEXT
  5
407
100
AcDbEntity
  8
0
100
AcDbMText
 62
5
  6
CONTINUOUS
  7
STANDARD
 71
1
 72
1
 10
1394.2698334983
 20
1162.8438994931
 30
0.0
 11
1.0
 21
0.0
 31
0.0
 44
0.9
  1
A
 40
12.5
 41
13.0952380952
  0
MTEXT
  5
408
100
AcDbEntity
  8
0
100
AcDbMText
 62
5
  6
CONTINUOUS
  7
STANDARD
 71
1
 72
1
 10
1419.547065815
 20
1163.0499568925
 30
0.0
 11
1.0
 21
0.0
 31
0.0
 44
0.9
  1
B
 40
12.5
 41
12.2023809524
  0
MTEXT
  5
409
100
AcDbEntity
  8
0
100
AcDbMText
 62
5
  6
CONTINUOUS
  7
STANDARD
 71
1
 72
1
 10
1339.4387731946
 20
845.724640427
 30
0.0
 11
1.0
 21
0.0
 31
0.0
 44
0.9
  1
A
 40
12.5
 41
13.0952380952
  0
MTEXT
  5
40A
100
AcDbEntity
  8
0
100
AcDbMText
 62
5
  6
CONTINUOUS
  7
STANDARD
 71
1
 72
1
 10
1370.2182646551
 20
1102.6362128376
 30
0.0
 11
1.0
 21
0.0
 31
0.0
 44
0.9
  1
B
 40
12.5
 41
12.2023809524
  0
MTEXT
  5
40B
100
AcDbEntity
  8
0
100
AcDbMText
 62
5
  6
CONTINUOUS
  7
STANDARD
 71
1
 72
1
 10
1129.5480600915
 20
876.3941149068
 30
0.0
 11
1.0
 21
0.0
 31
0.0
 44
0.9
  1
A
 40
12.5
 41
13.0952380952
  0
MTEXT
  5
40C
100
AcDbEntity
  8
0
100
AcDbMText
 62
5
  6
CONTINUOUS
  7
STANDARD
 71
1
 72
1
 10
759.1838447174
 20
1029.7201524662
 30
0.0
 11
0.0
 21
1.0
 31
0.0
 44
0.9
  1
(for shaft diam. tol. j6/k6)
 40
12.5
 41
232.1428571429
  0
MTEXT
  5
40D
100
AcDbEntity
  8
0
100
AcDbMText
 62
5
  6
CONTINUOUS
  7
STANDARD
 71
1
 72
1
 10
396.9945729899
 20
991.7222594256
 30
0.0
 11
0.9426414911
 21
-0.3338068592
 31
0.0
 44
0.9
  1
pcd.
 40
12.5
 41
33.0357142857
  0
MTEXT
  5
40E
100
AcDbEntity
  8
0
100
AcDbMText
 62
5
  6
CONTINUOUS
  7
TEXTSTYLE_2
 71
1
 72
1
 10
436.4814717464
 20
1094.6491897644
 30
0.0
 11
0.7071067812
 21
-0.7071067812
 31
0.0
 44
0.9
  1
{\Fgdt;n}
 40
12.5
 41
18.75
  0
MTEXT
  5
40F
100
AcDbEntity
  8
0
100
AcDbMText
 62
5
  6
CONTINUOUS
  7
STANDARD
 71
1
 72
1
 10
1890.9869419427
 20
871.2543551633
 30
0.0
 11
0.5877852523
 21
-0.8090169944
 31
0.0
 44
0.9
  1
pcd.
 40
12.5
 41
33.0357142857
  0
MTEXT
  5
410
100
AcDbEntity
  8
0
100
AcDbMText
 62
5
  6
CONTINUOUS
  7
STANDARD
 71
1
 72
1
 10
1757.9945277293
 20
1122.0676830642
 30
0.0
 11
1.0
 21
0.0
 31
0.0
 44
0.9
  1
x24 deep
 40
12.5
 41
74.1071428571
  0
LINE
  5
411
100
AcDbEntity
  8
0
100
AcDbLine
 62
2
  6
CONTINUOUS
 10
23.966061737
 20
1460.2351977443
 11
23.966061737
 21
25.1757093461
  0
LINE
  5
412
100
AcDbEntity
  8
0
100
AcDbLine
 62
2
  6
CONTINUOUS
 10
23.966061737
 20
25.1757093461
 11
2075.5540400189
 21
25.1757093461
  0
LINE
  5
413
100
AcDbEntity
  8
0
100
AcDbLine
 62
2
  6
CONTINUOUS
 10
2075.5540400189
 20
1460.2351977443
 11
23.966061737
 21
1460.2351977443
  0
LINE
  5
414
100
AcDbEntity
  8
0
100
AcDbLine
 62
2
  6
CONTINUOUS
 10
2075.5540400189
 20
25.1757093461
 11
2075.5540400189
 21
1460.2351977443
  0
LINE
  5
415
100
AcDbEntity
  8
0
100
AcDbLine
 62
7
  6
CONTINUOUS
 10
853.5793319903
 20
1081.5245157661
 11
853.5793319903
 21
891.5245157661
  0
LINE
  5
416
100
AcDbEntity
  8
AUSBLENDEN
100
AcDbLine
 62
2
  6
CENTER
 10
859.8293319903
 20
1043.6745157661
 11
859.8293319903
 21
929.3745157661
  0
LINE
  5
417
100
AcDbEntity
  8
0
100
AcDbLine
 62
7
  6
CONTINUOUS
 10
923.8831795676
 20
959.5245157661
 11
923.8831795676
 21
953.5245157661
  0
LINE
  5
418
100
AcDbEntity
  8
BEZUGSACHSEN
100
AcDbLine
 62
2
  6
CENTER
 10
929.0793319903
 20
956.5245157661
 11
929.0793319903
 21
932.7745157661
  0
LINE
  5
419
100
AcDbEntity
  8
BEZUGSACHSEN
100
AcDbLine
 62
2
  6
CENTER
 10
929.0793319903
 20
932.7745157661
 11
929.0793319903
 21
931.5064742275
  0
LINE
  5
41A
100
AcDbEntity
  8
BEZUGSACHSEN
100
AcDbLine
 62
2
  6
CENTER
 10
929.0793319903
 20
956.5245157661
 11
929.0793319903
 21
968.024540752
  0
LINE
  5
41B
100
AcDbEntity
  8
BEZUGSACHSEN
100
AcDbLine
 62
2
  6
CENTER
 10
929.0793319903
 20
968.024540752
 11
929.0793319903
 21
980.2745157661
  0
LINE
  5
41C
100
AcDbEntity
  8
0
100
AcDbLine
 62
7
  6
CONTINUOUS
 10
934.275484413
 20
953.5245157661
 11
934.275484413
 21
959.5245157661
  0
LINE
  5
41D
100
AcDbEntity
  8
0
100
AcDbLine
 62
7
  6
CONTINUOUS
 10
956.0793319903
 20
891.5245157661
 11
853.5793319903
 21
891.5245157661
  0
LINE
  5
41E
100
AcDbEntity
  8
0
100
AcDbLine
 62
7
  6
CONTINUOUS
 10
999.0793319903
 20
891.5745157661
 11
956.0793319903
 21
891.5745157661
  0
LINE
  5
41F
100
AcDbEntity
  8
0
100
AcDbLine
 62
7
  6
CONTINUOUS
 10
923.8831795676
 20
953.5245157661
 11
929.0793319903
 21
950.5245157661
  0
LINE
  5
420
100
AcDbEntity
  8
0
100
AcDbLine
 62
7
  6
CONTINUOUS
 10
956.0793319903
 20
1081.5245157661
 11
956.0793319903
 21
891.5245157661
  0
LINE
  5
421
100
AcDbEntity
  8
FASEN
100
AcDbLine
 62
7
  6
CONTINUOUS
 10
1118.5793297487
 20
922.2244507422
 11
1110.5793291783
 21
921.5245416656
  0
LINE
  5
422
100
AcDbEntity
  8
0
100
AcDbLine
 62
7
  6
CONTINUOUS
 10
956.0793319903
 20
913.210124273
 11
853.5793319903
 21
913.210124273
  0
LINE
  5
423
100
AcDbEntity
  8
0
100
AcDbLine
 62
7
  6
CONTINUOUS
 10
988.1734845541
 20
913.2271761145
 11
956.0793319903
 21
913.2271761145
  0
LINE
  5
424
100
AcDbEntity
  8
0
100
AcDbLine
 62
7
  6
CONTINUOUS
 10
1090.5793319903
 20
915.5245157661
 11
1078.5793319903
 21
915.5245157661
  0
LINE
  5
425
100
AcDbEntity
  8
0
100
AcDbLine
 62
7
  6
CONTINUOUS
 10
999.0793319903
 20
915.5245157661
 11
1051.8318545708
 21
915.5245157661
  0
LINE
  5
426
100
AcDbEntity
  8
0
100
AcDbLine
 62
7
  6
CONTINUOUS
 10
1054.5793319903
 20
916.5245157661
 11
1078.5793319903
 21
916.5245157661
  0
LINE
  5
427
100
AcDbEntity
  8
0
100
AcDbLine
 62
7
  6
CONTINUOUS
 10
1090.5793319903
 20
921.5245157661
 11
1110.5793314442
 21
921.5245157661
  0
LINE
  5
428
100
AcDbEntity
  8
0
100
AcDbLine
 62
7
  6
CONTINUOUS
 10
934.275484413
 20
959.5245157661
 11
929.0793319903
 21
962.5245157661
  0
LINE
  5
429
100
AcDbEntity
  8
ANSICHT_3D
100
AcDbLine
 62
2
  6
CENTER
 10
966.5793319903
 20
965.5379128966
 11
966.5793319903
 21
1007.5245157661
  0
LINE
  5
42A
100
AcDbEntity
  8
0
100
AcDbLine
 62
7
  6
CONTINUOUS
 10
1090.5793319903
 20
927.2349719999
 11
1078.5793319903
 21
927.2349719999
  0
LINE
  5
42B
100
AcDbEntity
  8
AUSBLENDEN
100
AcDbLine
 62
2
  6
CENTER
 10
859.8293319903
 20
929.3745157661
 11
853.5793319903
 21
929.3745157661
  0
LINE
  5
42C
100
AcDbEntity
  8
0
100
AcDbLine
 62
7
  6
CONTINUOUS
 10
988.1734845541
 20
1081.4745157661
 11
988.1734845541
 21
1059.8218554177
  0
LINE
  5
42D
100
AcDbEntity
  8
0
100
AcDbLine
 62
7
  6
CONTINUOUS
 10
988.1734845541
 20
913.2271761145
 11
988.1734845541
 21
891.5745157661
  0
LINE
  5
42E
100
AcDbEntity
  8
0
100
AcDbLine
 62
7
  6
CONTINUOUS
 10
999.0793319903
 20
946.5088938166
 11
1006.230819086
 21
946.5088938166
  0
LINE
  5
42F
100
AcDbEntity
  8
0
100
AcDbLine
 62
7
  6
CONTINUOUS
 10
999.0793319903
 20
891.5745157661
 11
999.0793319903
 21
1081.4745157661
  0
LINE
  5
430
100
AcDbEntity
  8
0
100
AcDbLine
 62
7
  6
CONTINUOUS
 10
929.0793319903
 20
962.5245157661
 11
923.8831795676
 21
959.5245157661
  0
LINE
  5
431
100
AcDbEntity
  8
0
100
AcDbLine
 62
7
  6
CONTINUOUS
 10
1118.5793319903
 20
951.5245157661
 11
1120.5793319903
 21
951.5245157661
  0
LINE
  5
432
100
AcDbEntity
  8
BEZUGSACHSEN
100
AcDbLine
 62
2
  6
CENTER
 10
929.0793319903
 20
956.5245157661
 11
913.5709303015
 21
956.5245157661
  0
LINE
  5
433
100
AcDbEntity
  8
BEZUGSACHSEN
100
AcDbLine
 62
2
  6
CENTER
 10
913.5709303015
 20
956.5245157661
 11
905.3293319903
 21
956.5245157661
  0
LINE
  5
434
100
AcDbEntity
  8
BEZUGSACHSEN
100
AcDbLine
 62
2
  6
CENTER
 10
929.0793319903
 20
956.5245157661
 11
952.8293319903
 21
956.5245157661
  0
LINE
  5
435
100
AcDbEntity
  8
0
100
AcDbLine
 62
7
  6
CONTINUOUS
 10
1006.230819086
 20
1057.5245157661
 11
1006.230819086
 21
1026.5401377155
  0
LINE
  5
436
100
AcDbEntity
  8
0
100
AcDbLine
 62
7
  6
CONTINUOUS
 10
1006.230819086
 20
915.5245157661
 11
1006.230819086
 21
946.5088938166
  0
LINE
  5
437
100
AcDbEntity
  8
0
100
AcDbLine
 62
7
  6
CONTINUOUS
 10
929.0793319903
 20
950.5245157661
 11
934.275484413
 21
953.5245157661
  0
LINE
  5
438
100
AcDbEntity
  8
ANSICHT_3D
100
AcDbLine
 62
2
  6
CENTER
 10
918.0793319903
 20
965.5379128966
 11
966.5793319903
 21
965.5379128966
  0
LINE
  5
439
100
AcDbEntity
  8
0
100
AcDbLine
 62
7
  6
CONTINUOUS
 10
1120.5793319903
 20
966.5245157661
 11
1200.5793319903
 21
966.5245157661
  0
LINE
  5
43A
100
AcDbEntity
  8
TEIL_STARTBEZUEGE
100
AcDbLine
 62
2
  6
CENTER
 10
1210.5793319903
 20
986.5245157661
 11
843.5793319903
 21
986.5245157661
  0
LINE
  5
43B
100
AcDbEntity
  8
0
100
AcDbLine
 62
7
  6
CONTINUOUS
 10
1035.0793319903
 20
915.5245157661
 11
1035.0793319903
 21
1057.5245157661
  0
LINE
  5
43C
100
AcDbEntity
  8
0
100
AcDbLine
 62
7
  6
CONTINUOUS
 10
1051.8318545708
 20
915.5245157661
 11
1051.8318545708
 21
1057.5245157661
  0
LINE
  5
43D
100
AcDbEntity
  8
0
100
AcDbLine
 62
7
  6
CONTINUOUS
 10
1054.5793319903
 20
916.5245157661
 11
1054.5793319903
 21
1056.5245157661
  0
LINE
  5
43E
100
AcDbEntity
  8
0
100
AcDbLine
 62
7
  6
CONTINUOUS
 10
1133.5793319903
 20
1005.6032997944
 11
1186.5793319903
 21
1005.6032997944
  0
LINE
  5
43F
100
AcDbEntity
  8
0
100
AcDbLine
 62
7
  6
CONTINUOUS
 10
1120.5793319903
 20
1006.5245157661
 11
1127.6125681053
 21
1006.5245157661
  0
LINE
  5
440
100
AcDbEntity
  8
0
100
AcDbLine
 62
7
  6
CONTINUOUS
 10
1192.5460958753
 20
1006.5245157661
 11
1200.5793319903
 21
1006.5245157661
  0
LINE
  5
441
100
AcDbEntity
  8
ANSICHT_3D
100
AcDbLine
 62
2
  6
CENTER
 10
966.5793319903
 20
1007.5245157661
 11
918.0793319903
 21
1007.5245157661
  0
LINE
  5
442
100
AcDbEntity
  8
0
100
AcDbLine
 62
7
  6
CONTINUOUS
 10
1127.5793319903
 20
1009.5245157661
 11
1192.5793319903
 21
1009.5245157661
  0
LINE
  5
443
100
AcDbEntity
  8
0
100
AcDbLine
 62
7
  6
CONTINUOUS
 10
1118.5793319903
 20
1021.5245157661
 11
1120.5793319903
 21
1021.5245157661
  0
LINE
  5
444
100
AcDbEntity
  8
0
100
AcDbLine
 62
7
  6
CONTINUOUS
 10
999.0793319903
 20
1026.5401377155
 11
1006.230819086
 21
1026.5401377155
  0
LINE
  5
445
100
AcDbEntity
  8
0
100
AcDbLine
 62
7
  6
CONTINUOUS
 10
1078.5793319903
 20
915.5245157661
 11
1078.5793319903
 21
1057.5245157661
  0
LINE
  5
446
100
AcDbEntity
  8
0
100
AcDbLine
 62
7
  6
CONTINUOUS
 10
1090.5793319903
 20
915.5245157661
 11
1090.5793319903
 21
1057.5245157661
  0
LINE
  5
447
100
AcDbEntity
  8
AUSBLENDEN
100
AcDbLine
 62
2
  6
CENTER
 10
853.5793319903
 20
1043.6745157661
 11
859.8293319903
 21
1043.6745157661
  0
LINE
  5
448
100
AcDbEntity
  8
0
100
AcDbLine
 62
7
  6
CONTINUOUS
 10
1090.5793319903
 20
1045.8140595322
 11
1078.5793319903
 21
1045.8140595322
  0
LINE
  5
449
100
AcDbEntity
  8
0
100
AcDbLine
 62
7
  6
CONTINUOUS
 10
1090.5793319903
 20
1051.5245157661
 11
1110.5793314442
 21
1051.5245157661
  0
LINE
  5
44A
100
AcDbEntity
  8
0
100
AcDbLine
 62
7
  6
CONTINUOUS
 10
1051.8318545708
 20
915.5245157661
 11
1054.5793319903
 21
916.5245157661
  0
LINE
  5
44B
100
AcDbEntity
  8
0
100
AcDbLine
 62
7
  6
CONTINUOUS
 10
1054.5793319903
 20
1056.5245157661
 11
1078.5793319903
 21
1056.5245157661
  0
LINE
  5
44C
100
AcDbEntity
  8
0
100
AcDbLine
 62
7
  6
CONTINUOUS
 10
1090.5793319903
 20
1057.5245157661
 11
1078.5793319903
 21
1057.5245157661
  0
LINE
  5
44D
100
AcDbEntity
  8
0
100
AcDbLine
 62
7
  6
CONTINUOUS
 10
999.0793319903
 20
1057.5245157661
 11
1051.8318545708
 21
1057.5245157661
  0
LINE
  5
44E
100
AcDbEntity
  8
0
100
AcDbLine
 62
7
  6
CONTINUOUS
 10
988.1734845541
 20
1059.8218554177
 11
956.0793319903
 21
1059.8218554177
  0
LINE
  5
44F
100
AcDbEntity
  8
0
100
AcDbLine
 62
7
  6
CONTINUOUS
 10
956.0793319903
 20
1059.8389072591
 11
853.5793319903
 21
1059.8389072591
  0
LINE
  5
450
100
AcDbEntity
  8
FASEN
100
AcDbLine
 62
7
  6
CONTINUOUS
 10
1118.5793297487
 20
1050.8245807899
 11
1110.5793291783
 21
1051.5244898665
  0
LINE
  5
451
100
AcDbEntity
  8
0
100
AcDbLine
 62
7
  6
CONTINUOUS
 10
1051.8318545708
 20
1057.5245157661
 11
1054.5793319903
 21
1056.5245157661
  0
LINE
  5
452
100
AcDbEntity
  8
FASEN
100
AcDbLine
 62
7
  6
CONTINUOUS
 10
1110.5793314442
 20
1051.5245157661
 11
1110.5793314442
 21
921.5245157661
  0
LINE
  5
453
100
AcDbEntity
  8
FASEN
100
AcDbLine
 62
7
  6
CONTINUOUS
 10
1118.5793319903
 20
1050.8246064106
 11
1118.5793319903
 21
922.2244251215
  0
LINE
  5
454
100
AcDbEntity
  8
0
100
AcDbLine
 62
7
  6
CONTINUOUS
 10
1120.5793319903
 20
1021.5245157661
 11
1120.5793319903
 21
951.5245157661
  0
LINE
  5
455
100
AcDbEntity
  8
0
100
AcDbLine
 62
7
  6
CONTINUOUS
 10
956.0793319903
 20
1081.4745157661
 11
999.0793319903
 21
1081.4745157661
  0
LINE
  5
456
100
AcDbEntity
  8
0
100
AcDbLine
 62
7
  6
CONTINUOUS
 10
956.0793319903
 20
1081.5245157661
 11
853.5793319903
 21
1081.5245157661
  0
LINE
  5
457
100
AcDbEntity
  8
0
100
AcDbLine
 62
7
  6
CONTINUOUS
 10
1127.5793319903
 20
1006.5145700762
 11
1127.5793319903
 21
1009.5245157661
  0
LINE
  5
458
100
AcDbEntity
  8
0
100
AcDbLine
 62
9
  6
CONTINUOUS
 10
1133.5793319903
 20
1005.6032997944
 11
1133.5793319903
 21
1009.5245157661
  0
LINE
  5
459
100
AcDbEntity
  8
0
100
AcDbLine
 62
9
  6
CONTINUOUS
 10
1186.5793319903
 20
1005.6032997944
 11
1186.5793319903
 21
1009.5245157661
  0
LINE
  5
45A
100
AcDbEntity
  8
0
100
AcDbLine
 62
7
  6
CONTINUOUS
 10
1192.5793319903
 20
1006.5145700762
 11
1192.5793319903
 21
1009.5245157661
  0
LINE
  5
45B
100
AcDbEntity
  8
0
100
AcDbLine
 62
7
  6
CONTINUOUS
 10
1200.5793319903
 20
1006.5239706248
 11
1200.5793319903
 21
966.5250609074
  0
LINE
  5
45C
100
AcDbEntity
  8
0
100
AcDbLine
 62
7
  6
CONTINUOUS
 10
197.1959567929
 20
1059.8389072591
 11
197.1959567929
 21
913.210124273
  0
LINE
  5
45D
100
AcDbEntity
  8
0
100
AcDbLine
 62
7
  6
CONTINUOUS
 10
197.2459567929
 20
913.2271761145
 11
197.2459567929
 21
1059.8218554177
  0
LINE
  5
45E
100
AcDbEntity
  8
0
100
AcDbLine
 62
7
  6
CONTINUOUS
 10
218.8815652998
 20
891.5245157661
 11
365.510348286
 21
891.5245157661
  0
LINE
  5
45F
100
AcDbEntity
  8
0
100
AcDbLine
 62
7
  6
CONTINUOUS
 10
365.4932964445
 20
891.5745157661
 11
218.8986171413
 21
891.5745157661
  0
LINE
  5
460
100
AcDbEntity
  8
0
100
AcDbLine
 62
7
  6
CONTINUOUS
 10
221.1959567929
 20
1045.8140595322
 11
221.1959567929
 21
927.2349719999
  0
LINE
  5
461
100
AcDbEntity
  8
0
100
AcDbLine
 62
7
  6
CONTINUOUS
 10
232.9064130268
 20
915.5245157661
 11
351.4855005591
 21
915.5245157661
  0
LINE
  5
462
100
AcDbEntity
  8
0
100
AcDbLine
 62
7
  6
CONTINUOUS
 10
286.1959567929
 20
1005.6032997944
 11
286.1959567929
 21
1009.5245157661
  0
LINE
  5
463
100
AcDbEntity
  8
TEIL_STARTBEZUEGE
100
AcDbLine
 62
2
  6
CENTER
 10
292.1959567929
 20
905.5245157661
 11
292.1959567929
 21
1067.5245157661
  0
LINE
  5
464
100
AcDbEntity
  8
0
100
AcDbLine
 62
7
  6
CONTINUOUS
 10
346.6785342833
 20
1048.7852678495
 11
346.6431789443
 21
1048.7499125105
  0
LINE
  5
465
100
AcDbEntity
  8
0
100
AcDbLine
 62
7
  6
CONTINUOUS
 10
229.9705600485
 20
932.0772936147
 11
229.9352047094
 21
932.0419382756
  0
LINE
  5
466
100
AcDbEntity
  8
TEIL_STARTBEZUEGE
100
AcDbLine
 62
2
  6
CENTER
 10
373.1959567929
 20
986.5245157661
 11
211.1959567929
 21
986.5245157661
  0
LINE
  5
467
100
AcDbEntity
  8
0
100
AcDbLine
 62
7
  6
CONTINUOUS
 10
229.9352047094
 20
1041.0070932565
 11
229.9705600485
 21
1040.9717379174
  0
LINE
  5
468
100
AcDbEntity
  8
0
100
AcDbLine
 62
7
  6
CONTINUOUS
 10
346.6431789443
 20
924.2991190217
 11
346.6785342833
 21
924.2637636826
  0
LINE
  5
469
100
AcDbEntity
  8
0
100
AcDbLine
 62
7
  6
CONTINUOUS
 10
298.1959567929
 20
1005.6032997944
 11
298.1959567929
 21
1009.5245157661
  0
LINE
  5
46A
100
AcDbEntity
  8
0
100
AcDbLine
 62
7
  6
CONTINUOUS
 10
237.7133793025
 20
924.2637636826
 11
237.7487346416
 21
924.2991190217
  0
LINE
  5
46B
100
AcDbEntity
  8
0
100
AcDbLine
 62
7
  6
CONTINUOUS
 10
354.4213535373
 20
1040.9717379174
 11
354.4567088764
 21
1041.0070932565
  0
LINE
  5
46C
100
AcDbEntity
  8
0
100
AcDbLine
 62
7
  6
CONTINUOUS
 10
354.4567088764
 20
932.0419382756
 11
354.4213535373
 21
932.0772936147
  0
LINE
  5
46D
100
AcDbEntity
  8
0
100
AcDbLine
 62
7
  6
CONTINUOUS
 10
237.7487346416
 20
1048.7499125105
 11
237.7133793025
 21
1048.7852678495
  0
LINE
  5
46E
100
AcDbEntity
  8
0
100
AcDbLine
 62
7
  6
CONTINUOUS
 10
286.1959567929
 20
1009.5245157661
 11
298.1959567929
 21
1009.5245157661
  0
LINE
  5
46F
100
AcDbEntity
  8
0
100
AcDbLine
 62
7
  6
CONTINUOUS
 10
363.1959567929
 20
927.2349719999
 11
363.1959567929
 21
1045.8140595322
  0
LINE
  5
470
100
AcDbEntity
  8
0
100
AcDbLine
 62
7
  6
CONTINUOUS
 10
351.4855005591
 20
1057.5245157661
 11
232.9064130268
 21
1057.5245157661
  0
LINE
  5
471
100
AcDbEntity
  8
0
100
AcDbLine
 62
7
  6
CONTINUOUS
 10
387.1459567929
 20
1059.8218554177
 11
387.1459567929
 21
913.2271761145
  0
LINE
  5
472
100
AcDbEntity
  8
0
100
AcDbLine
 62
7
  6
CONTINUOUS
 10
387.1959567929
 20
913.210124273
 11
387.1959567929
 21
1059.8389072591
  0
LINE
  5
473
100
AcDbEntity
  8
0
100
AcDbLine
 62
7
  6
CONTINUOUS
 10
218.8986171413
 20
1081.4745157661
 11
365.4932964445
 21
1081.4745157661
  0
LINE
  5
474
100
AcDbEntity
  8
0
100
AcDbLine
 62
7
  6
CONTINUOUS
 10
365.510348286
 20
1081.5245157661
 11
218.8815652998
 21
1081.5245157661
  0
LINE
  5
475
100
AcDbEntity
  8
0
100
AcDbLine
 62
7
  6
CONTINUOUS
 10
1741.0111904481
 20
1074.6980242835
 11
1737.0101530826
 21
1072.3880242835
  0
LINE
  5
476
100
AcDbEntity
  8
0
100
AcDbLine
 62
7
  6
CONTINUOUS
 10
1711.3424784384
 20
928.0197192583
 11
1713.6524784384
 21
924.0186818928
  0
LINE
  5
477
100
AcDbEntity
  8
0
100
AcDbLine
 62
7
  6
CONTINUOUS
 10
1704.5159869559
 20
913.210124273
 11
1704.5159869559
 21
1059.8389072591
  0
LINE
  5
478
100
AcDbEntity
  8
0
100
AcDbLine
 62
7
  6
CONTINUOUS
 10
1741.0111904481
 20
1065.4580242835
 11
1745.0122278136
 21
1067.7680242835
  0
LINE
  5
479
100
AcDbEntity
  8
0
100
AcDbLine
 62
7
  6
CONTINUOUS
 10
1872.830378449
 20
891.5245157661
 11
1726.2015954628
 21
891.5245157661
  0
LINE
  5
47A
100
AcDbEntity
  8
0
100
AcDbLine
 62
7
  6
CONTINUOUS
 10
1720.5824784384
 20
928.0197192583
 11
1718.2724784384
 21
932.0207566237
  0
LINE
  5
47B
100
AcDbEntity
  8
BEZUGSACHSEN
100
AcDbLine
 62
2
  6
CENTER
 10
1715.9624784384
 20
928.0197192583
 11
1715.9624784384
 21
908.7697192583
  0
LINE
  5
47C
100
AcDbEntity
  8
BEZUGSACHSEN
100
AcDbLine
 62
2
  6
CENTER
 10
1715.9624784384
 20
928.0197192583
 11
1715.9624784384
 21
947.2697192583
  0
LINE
  5
47D
100
AcDbEntity
  8
BEZUGSACHSEN
100
AcDbLine
 62
2
  6
CENTER
 10
1858.0207834637
 20
902.9710072486
 11
1838.7707834637
 21
902.9710072486
  0
LINE
  5
47E
100
AcDbEntity
  8
BEZUGSACHSEN
100
AcDbLine
 62
2
  6
CENTER
 10
1858.0207834637
 20
902.9710072486
 11
1877.2707834637
 21
902.9710072486
  0
LINE
  5
47F
100
AcDbEntity
  8
BEZUGSACHSEN
100
AcDbLine
 62
2
  6
CENTER
 10
1728.8053088372
 20
1057.2351938847
 11
1728.8053088372
 21
1037.1351938847
  0
LINE
  5
480
100
AcDbEntity
  8
BEZUGSACHSEN
100
AcDbLine
 62
2
  6
CENTER
 10
1728.8053088372
 20
915.8138376474
 11
1728.8053088372
 21
895.7138376474
  0
LINE
  5
481
100
AcDbEntity
  8
BEZUGSACHSEN
100
AcDbLine
 62
2
  6
CENTER
 10
1728.8053088372
 20
915.8138376474
 11
1728.8053088372
 21
935.9138376474
  0
LINE
  5
482
100
AcDbEntity
  8
BEZUGSACHSEN
100
AcDbLine
 62
2
  6
CENTER
 10
1728.8053088372
 20
1057.2351938847
 11
1728.8053088372
 21
1077.3351938847
  0
LINE
  5
483
100
AcDbEntity
  8
BEZUGSACHSEN
100
AcDbLine
 62
2
  6
CENTER
 10
1870.2266650745
 20
915.8138376474
 11
1850.1266650745
 21
915.8138376474
  0
LINE
  5
484
100
AcDbEntity
  8
BEZUGSACHSEN
100
AcDbLine
 62
2
  6
CENTER
 10
1728.8053088372
 20
915.8138376474
 11
1708.7053088372
 21
915.8138376474
  0
LINE
  5
485
100
AcDbEntity
  8
BEZUGSACHSEN
100
AcDbLine
 62
2
  6
CENTER
 10
1728.8053088372
 20
915.8138376474
 11
1748.9053088372
 21
915.8138376474
  0
LINE
  5
486
100
AcDbEntity
  8
BEZUGSACHSEN
100
AcDbLine
 62
2
  6
CENTER
 10
1870.2266650745
 20
915.8138376474
 11
1890.3266650745
 21
915.8138376474
  0
LINE
  5
487
100
AcDbEntity
  8
0
100
AcDbLine
 62
7
  6
CONTINUOUS
 10
1737.0101530826
 20
1072.3880242835
 11
1737.0101530826
 21
1067.7680242835
  0
LINE
  5
488
100
AcDbEntity
  8
GEWINDE
100
AcDbLine
 62
2
  6
CENTER
 10
1741.0111904481
 20
1070.0780242835
 11
1741.0111904481
 21
1050.0780242835
  0
LINE
  5
489
100
AcDbEntity
  8
GEWINDE
100
AcDbLine
 62
2
  6
CENTER
 10
1741.0111904481
 20
1070.0780242835
 11
1741.0111904481
 21
1090.0780242835
  0
LINE
  5
48A
100
AcDbEntity
  8
0
100
AcDbLine
 62
7
  6
CONTINUOUS
 10
1713.6524784384
 20
924.0186818928
 11
1718.2724784384
 21
924.0186818928
  0
LINE
  5
48B
100
AcDbEntity
  8
BEZUGSACHSEN
100
AcDbLine
 62
2
  6
CENTER
 10
1715.9624784384
 20
928.0197192583
 11
1696.7124784384
 21
928.0197192583
  0
LINE
  5
48C
100
AcDbEntity
  8
BEZUGSACHSEN
100
AcDbLine
 62
2
  6
CENTER
 10
1715.9624784384
 20
928.0197192583
 11
1735.2124784384
 21
928.0197192583
  0
LINE
  5
48D
100
AcDbEntity
  8
0
100
AcDbLine
 62
7
  6
CONTINUOUS
 10
1745.0122278136
 20
1067.7680242835
 11
1745.0122278136
 21
1072.3880242835
  0
LINE
  5
48E
100
AcDbEntity
  8
0
100
AcDbLine
 62
7
  6
CONTINUOUS
 10
1713.6524784384
 20
932.0207566237
 11
1711.3424784384
 21
928.0197192583
  0
LINE
  5
48F
100
AcDbEntity
  8
0
100
AcDbLine
 62
7
  6
CONTINUOUS
 10
1718.2724784384
 20
932.0207566237
 11
1713.6524784384
 21
932.0207566237
  0
LINE
  5
490
100
AcDbEntity
  8
0
100
AcDbLine
 62
7
  6
CONTINUOUS
 10
1854.0197460982
 20
900.6610072486
 11
1858.0207834637
 21
898.3510072486
  0
LINE
  5
491
100
AcDbEntity
  8
0
100
AcDbLine
 62
7
  6
CONTINUOUS
 10
1718.2724784384
 20
924.0186818928
 11
1720.5824784384
 21
928.0197192583
  0
LINE
  5
492
100
AcDbEntity
  8
BEZUGSACHSEN
100
AcDbLine
 62
7
  6
CONTINUOUS
 10
1814.6659869559
 20
948.5245157661
 11
1824.6659869559
 21
948.5245157661
  0
LINE
  5
493
100
AcDbEntity
  8
0
100
AcDbLine
 62
7
  6
CONTINUOUS
 10
1862.0218208292
 20
905.2810072486
 11
1858.0207834637
 21
907.5910072486
  0
LINE
  5
494
100
AcDbEntity
  8
0
100
AcDbLine
 62
7
  6
CONTINUOUS
 10
1798.7659869559
 20
965.5379128966
 11
1798.7659869559
 21
946.5315476342
  0
LINE
  5
495
100
AcDbEntity
  8
TEIL_STARTBEZUEGE
100
AcDbLine
 62
2
  6
CENTER
 10
1799.5159869559
 20
881.5245157661
 11
1799.5159869559
 21
1091.5245157661
  0
LINE
  5
496
100
AcDbEntity
  8
0
100
AcDbLine
 62
7
  6
CONTINUOUS
 10
1800.2659869559
 20
946.5315476342
 11
1800.2659869559
 21
965.5379128966
  0
LINE
  5
497
100
AcDbEntity
  8
TEIL_STARTBEZUEGE
100
AcDbLine
 62
2
  6
CENTER
 10
1694.5159869559
 20
986.5245157661
 11
1904.5159869559
 21
986.5245157661
  0
LINE
  5
498
100
AcDbEntity
  8
BEZUGSACHSEN
100
AcDbLine
 62
7
  6
CONTINUOUS
 10
1814.6659869559
 20
949.5045549341
 11
1814.6659869559
 21
948.5245157661
  0
LINE
  5
499
100
AcDbEntity
  8
BEZUGSACHSEN
100
AcDbLine
 62
7
  6
CONTINUOUS
 10
1824.6659869559
 20
955.5856212847
 11
1824.6659869559
 21
948.5257547845
  0
LINE
  5
49A
100
AcDbEntity
  8
0
100
AcDbLine
 62
7
  6
CONTINUOUS
 10
1880.7594954734
 20
1049.0303496394
 11
1878.4494954734
 21
1045.0293122739
  0
LINE
  5
49B
100
AcDbEntity
  8
0
100
AcDbLine
 62
7
  6
CONTINUOUS
 10
1885.3794954734
 20
1041.0282749084
 11
1887.6894954734
 21
1045.0293122739
  0
LINE
  5
49C
100
AcDbEntity
  8
0
100
AcDbLine
 62
7
  6
CONTINUOUS
 10
1737.0101530826
 20
1067.7680242835
 11
1741.0111904481
 21
1065.4580242835
  0
LINE
  5
49D
100
AcDbEntity
  8
0
100
AcDbLine
 62
7
  6
CONTINUOUS
 10
1745.0122278136
 20
1072.3880242835
 11
1741.0111904481
 21
1074.6980242835
  0
LINE
  5
49E
100
AcDbEntity
  8
0
100
AcDbLine
 62
7
  6
CONTINUOUS
 10
1854.0197460982
 20
905.2810072486
 11
1854.0197460982
 21
900.6610072486
  0
LINE
  5
49F
100
AcDbEntity
  8
0
100
AcDbLine
 62
7
  6
CONTINUOUS
 10
1880.7594954734
 20
1041.0282749084
 11
1885.3794954734
 21
1041.0282749084
  0
LINE
  5
4A0
100
AcDbEntity
  8
BEZUGSACHSEN
100
AcDbLine
 62
2
  6
CENTER
 10
1858.0207834637
 20
902.9710072486
 11
1858.0207834637
 21
883.7210072486
  0
LINE
  5
4A1
100
AcDbEntity
  8
BEZUGSACHSEN
100
AcDbLine
 62
2
  6
CENTER
 10
1858.0207834637
 20
902.9710072486
 11
1858.0207834637
 21
922.2210072486
  0
LINE
  5
4A2
100
AcDbEntity
  8
0
100
AcDbLine
 62
7
  6
CONTINUOUS
 10
1862.0218208292
 20
900.6610072486
 11
1862.0218208292
 21
905.2810072486
  0
LINE
  5
4A3
100
AcDbEntity
  8
BEZUGSACHSEN
100
AcDbLine
 62
2
  6
CENTER
 10
1883.0694954734
 20
1045.0293122739
 11
1863.8194954734
 21
1045.0293122739
  0
LINE
  5
4A4
100
AcDbEntity
  8
BEZUGSACHSEN
100
AcDbLine
 62
2
  6
CENTER
 10
1883.0694954734
 20
1045.0293122739
 11
1902.3194954734
 21
1045.0293122739
  0
LINE
  5
4A5
100
AcDbEntity
  8
0
100
AcDbLine
 62
7
  6
CONTINUOUS
 10
1885.3794954734
 20
1049.0303496394
 11
1880.7594954734
 21
1049.0303496394
  0
LINE
  5
4A6
100
AcDbEntity
  8
BEZUGSACHSEN
100
AcDbLine
 62
2
  6
CENTER
 10
1870.2266650745
 20
1057.2351938847
 11
1870.2266650745
 21
1037.1351938847
  0
LINE
  5
4A7
100
AcDbEntity
  8
BEZUGSACHSEN
100
AcDbLine
 62
2
  6
CENTER
 10
1870.2266650745
 20
915.8138376474
 11
1870.2266650745
 21
895.7138376474
  0
LINE
  5
4A8
100
AcDbEntity
  8
BEZUGSACHSEN
100
AcDbLine
 62
2
  6
CENTER
 10
1870.2266650745
 20
915.8138376474
 11
1870.2266650745
 21
935.9138376474
  0
LINE
  5
4A9
100
AcDbEntity
  8
BEZUGSACHSEN
100
AcDbLine
 62
2
  6
CENTER
 10
1870.2266650745
 20
1057.2351938847
 11
1870.2266650745
 21
1077.3351938847
  0
LINE
  5
4AA
100
AcDbEntity
  8
BEZUGSACHSEN
100
AcDbLine
 62
2
  6
CENTER
 10
1870.2266650745
 20
1057.2351938847
 11
1850.1266650745
 21
1057.2351938847
  0
LINE
  5
4AB
100
AcDbEntity
  8
BEZUGSACHSEN
100
AcDbLine
 62
2
  6
CENTER
 10
1728.8053088372
 20
1057.2351938847
 11
1708.7053088372
 21
1057.2351938847
  0
LINE
  5
4AC
100
AcDbEntity
  8
BEZUGSACHSEN
100
AcDbLine
 62
2
  6
CENTER
 10
1728.8053088372
 20
1057.2351938847
 11
1748.9053088372
 21
1057.2351938847
  0
LINE
  5
4AD
100
AcDbEntity
  8
BEZUGSACHSEN
100
AcDbLine
 62
2
  6
CENTER
 10
1870.2266650745
 20
1057.2351938847
 11
1890.3266650745
 21
1057.2351938847
  0
LINE
  5
4AE
100
AcDbEntity
  8
BEZUGSACHSEN
100
AcDbLine
 62
2
  6
CENTER
 10
1883.0694954734
 20
1045.0293122739
 11
1883.0694954734
 21
1025.7793122739
  0
LINE
  5
4AF
100
AcDbEntity
  8
BEZUGSACHSEN
100
AcDbLine
 62
2
  6
CENTER
 10
1883.0694954734
 20
1045.0293122739
 11
1883.0694954734
 21
1064.2793122739
  0
LINE
  5
4B0
100
AcDbEntity
  8
GEWINDE
100
AcDbLine
 62
2
  6
CENTER
 10
1741.0111904481
 20
1070.0780242835
 11
1721.0111904481
 21
1070.0780242835
  0
LINE
  5
4B1
100
AcDbEntity
  8
GEWINDE
100
AcDbLine
 62
2
  6
CENTER
 10
1741.0111904481
 20
1070.0780242835
 11
1761.0111904481
 21
1070.0780242835
  0
LINE
  5
4B2
100
AcDbEntity
  8
0
100
AcDbLine
 62
7
  6
CONTINUOUS
 10
1894.5159869559
 20
1059.8389072591
 11
1894.5159869559
 21
913.210124273
  0
LINE
  5
4B3
100
AcDbEntity
  8
0
100
AcDbLine
 62
7
  6
CONTINUOUS
 10
1726.2015954628
 20
1081.5245157661
 11
1872.830378449
 21
1081.5245157661
  0
LINE
  5
4B4
100
AcDbEntity
  8
0
100
AcDbLine
 62
7
  6
CONTINUOUS
 10
1858.0207834637
 20
907.5910072486
 11
1854.0197460982
 21
905.2810072486
  0
LINE
  5
4B5
100
AcDbEntity
  8
0
100
AcDbLine
 62
7
  6
CONTINUOUS
 10
1878.4494954734
 20
1045.0293122739
 11
1880.7594954734
 21
1041.0282749084
  0
LINE
  5
4B6
100
AcDbEntity
  8
0
100
AcDbLine
 62
7
  6
CONTINUOUS
 10
1858.0207834637
 20
898.3510072486
 11
1862.0218208292
 21
900.6610072486
  0
LINE
  5
4B7
100
AcDbEntity
  8
0
100
AcDbLine
 62
7
  6
CONTINUOUS
 10
1887.6894954734
 20
1045.0293122739
 11
1885.3794954734
 21
1049.0303496394
  0
CIRCLE
  5
4B8
100
AcDbEntity
  8
BEZUGSACHSEN
100
AcDbCircle
 62
7
  6
CONTINUOUS
 10
929.0793319903
 20
956.5245157661
 40
8.75
  0
ARC
  5
4B9
100
AcDbEntity
  8
0
100
AcDbCircle
 62
7
  6
CONTINUOUS
 10
233.824292006
 20
928.1528509791
 40
5.5
100
AcDbArc
 50
135.0
 51
315.0
  0
ARC
  5
4BA
100
AcDbEntity
  8
0
100
AcDbCircle
 62
7
  6
CONTINUOUS
 10
233.859647345
 20
928.1882063182
 40
5.5
100
AcDbArc
 50
315.0
 51
135.0
  0
ARC
  5
4BB
100
AcDbEntity
  8
0
100
AcDbCircle
 62
7
  6
CONTINUOUS
 10
233.824292006
 20
1044.896180553
 40
5.5
100
AcDbArc
 50
45.0
 51
225.0
  0
ARC
  5
4BC
100
AcDbEntity
  8
0
100
AcDbCircle
 62
7
  6
CONTINUOUS
 10
233.859647345
 20
1044.860825214
 40
5.5
100
AcDbArc
 50
225.0
 51
45.0
  0
ARC
  5
4BD
100
AcDbEntity
  8
0
100
AcDbCircle
 62
7
  6
CONTINUOUS
 10
350.5676215799
 20
928.1528509791
 40
5.5
100
AcDbArc
 50
225.0
 51
45.0
  0
ARC
  5
4BE
100
AcDbEntity
  8
0
100
AcDbCircle
 62
7
  6
CONTINUOUS
 10
350.5322662408
 20
928.1882063182
 40
5.5
100
AcDbArc
 50
45.0
 51
225.0
  0
ARC
  5
4BF
100
AcDbEntity
  8
0
100
AcDbCircle
 62
7
  6
CONTINUOUS
 10
292.1959567929
 20
986.5245157661
 40
120.0
100
AcDbArc
 50
127.6584620062
 51
142.3415379938
  0
ARC
  5
4C0
100
AcDbEntity
  8
0
100
AcDbCircle
 62
7
  6
CONTINUOUS
 10
292.1959567929
 20
986.5245157661
 40
120.0
100
AcDbArc
 50
217.6584620062
 51
232.3415379938
  0
ARC
  5
4C1
100
AcDbEntity
  8
0
100
AcDbCircle
 62
7
  6
CONTINUOUS
 10
292.1959567929
 20
986.5245157661
 40
120.0
100
AcDbArc
 50
307.6584620062
 51
322.3415379938
  0
ARC
  5
4C2
100
AcDbEntity
  8
0
100
AcDbCircle
 62
7
  6
CONTINUOUS
 10
292.1959567929
 20
986.5245157661
 40
120.0
100
AcDbArc
 50
37.6584620062
 51
52.3415379938
  0
ARC
  5
4C3
100
AcDbEntity
  8
0
100
AcDbCircle
 62
7
  6
CONTINUOUS
 10
292.1959567929
 20
986.5245157661
 40
119.95
100
AcDbArc
 50
307.6666053575
 51
322.3333946425
  0
ARC
  5
4C4
100
AcDbEntity
  8
0
100
AcDbCircle
 62
7
  6
CONTINUOUS
 10
292.1959567929
 20
986.5245157661
 40
119.95
100
AcDbArc
 50
217.6666053575
 51
232.3333946425
  0
ARC
  5
4C5
100
AcDbEntity
  8
0
100
AcDbCircle
 62
7
  6
CONTINUOUS
 10
292.1959567929
 20
986.5245157661
 40
119.95
100
AcDbArc
 50
127.6666053575
 51
142.3333946425
  0
ARC
  5
4C6
100
AcDbEntity
  8
0
100
AcDbCircle
 62
7
  6
CONTINUOUS
 10
292.1959567929
 20
986.5245157661
 40
119.95
100
AcDbArc
 50
37.6666053575
 51
52.3333946425
  0
ARC
  5
4C7
100
AcDbEntity
  8
0
100
AcDbCircle
 62
9
  6
CONTINUOUS
 10
292.1959567929
 20
986.5245157661
 40
95.0
100
AcDbArc
 50
271.8590020967
 51
358.1409979033
  0
ARC
  5
4C8
100
AcDbEntity
  8
0
100
AcDbCircle
 62
9
  6
CONTINUOUS
 10
292.1959567929
 20
986.5245157661
 40
95.0
100
AcDbArc
 50
1.8590020967
 51
88.1409979033
  0
ARC
  5
4C9
100
AcDbEntity
  8
0
100
AcDbCircle
 62
9
  6
CONTINUOUS
 10
292.1959567929
 20
986.5245157661
 40
95.0
100
AcDbArc
 50
91.8590020967
 51
178.1409979033
  0
ARC
  5
4CA
100
AcDbEntity
  8
0
100
AcDbCircle
 62
9
  6
CONTINUOUS
 10
292.1959567929
 20
986.5245157661
 40
95.0
100
AcDbArc
 50
181.8590020967
 51
268.1409979033
  0
ARC
  5
4CB
100
AcDbEntity
  8
0
100
AcDbCircle
 62
7
  6
CONTINUOUS
 10
292.1959567929
 20
986.5245157661
 40
92.5
100
AcDbArc
 50
309.8640417877
 51
320.1359582123
  0
ARC
  5
4CC
100
AcDbEntity
  8
0
100
AcDbCircle
 62
7
  6
CONTINUOUS
 10
292.1959567929
 20
986.5245157661
 40
92.5
100
AcDbArc
 50
219.8640417877
 51
230.1359582123
  0
ARC
  5
4CD
100
AcDbEntity
  8
0
100
AcDbCircle
 62
7
  6
CONTINUOUS
 10
292.1959567929
 20
986.5245157661
 40
92.5
100
AcDbArc
 50
129.8640417877
 51
140.1359582123
  0
ARC
  5
4CE
100
AcDbEntity
  8
0
100
AcDbCircle
 62
7
  6
CONTINUOUS
 10
292.1959567929
 20
986.5245157661
 40
92.5
100
AcDbArc
 50
39.8640417877
 51
50.1359582123
  0
CIRCLE
  5
4CF
100
AcDbEntity
  8
ANSICHT_3D
100
AcDbCircle
 62
2
  6
CENTER
 10
292.1959567929
 20
986.5245157661
 40
82.5
  0
ARC
  5
4D0
100
AcDbEntity
  8
0
100
AcDbCircle
 62
7
  6
CONTINUOUS
 10
292.1959567929
 20
986.5245157661
 40
81.5
100
AcDbArc
 50
41.2254118273
 51
48.7745881727
  0
ARC
  5
4D1
100
AcDbEntity
  8
0
100
AcDbCircle
 62
7
  6
CONTINUOUS
 10
292.1959567929
 20
986.5245157661
 40
81.5
100
AcDbArc
 50
131.2254118273
 51
138.7745881727
  0
ARC
  5
4D2
100
AcDbEntity
  8
0
100
AcDbCircle
 62
7
  6
CONTINUOUS
 10
292.1959567929
 20
986.5245157661
 40
81.5
100
AcDbArc
 50
221.2254118273
 51
228.7745881727
  0
ARC
  5
4D3
100
AcDbEntity
  8
0
100
AcDbCircle
 62
7
  6
CONTINUOUS
 10
292.1959567929
 20
986.5245157661
 40
81.5
100
AcDbArc
 50
311.2254118273
 51
318.7745881727
  0
CIRCLE
  5
4D4
100
AcDbEntity
  8
FASEN
100
AcDbCircle
 62
7
  6
CONTINUOUS
 10
292.1959567929
 20
986.5245157661
 40
65.0
  0
CIRCLE
  5
4D5
100
AcDbEntity
  8
FASEN
100
AcDbCircle
 62
7
  6
CONTINUOUS
 10
292.1959567929
 20
986.5245157661
 40
64.300064985
  0
CIRCLE
  5
4D6
100
AcDbEntity
  8
0
100
AcDbCircle
 62
7
  6
CONTINUOUS
 10
292.1959567929
 20
986.5245157661
 40
35.0
  0
CIRCLE
  5
4D7
100
AcDbEntity
  8
0
100
AcDbCircle
 62
7
  6
CONTINUOUS
 10
292.1959567929
 20
986.5245157661
 40
20.0
  0
CIRCLE
  5
4D8
100
AcDbEntity
  8
BOHRUNGEN
100
AcDbCircle
 62
7
  6
CONTINUOUS
 10
292.1959567929
 20
986.5245157661
 40
11.5
  0
CIRCLE
  5
4D9
100
AcDbEntity
  8
BOHRUNGEN
100
AcDbCircle
 62
7
  6
CONTINUOUS
 10
292.1959567929
 20
986.5245157661
 40
8.5
  0
ARC
  5
4DA
100
AcDbEntity
  8
0
100
AcDbCircle
 62
2
  6
CONTINUOUS
 10
292.1959567929
 20
986.5245157661
 40
8.0
100
AcDbArc
 50
255.0
 51
195.0
  0
CIRCLE
  5
4DB
100
AcDbEntity
  8
BOHRUNGEN
100
AcDbCircle
 62
7
  6
CONTINUOUS
 10
292.1959567929
 20
986.5245157661
 40
7.0
  0
ARC
  5
4DC
100
AcDbEntity
  8
0
100
AcDbCircle
 62
7
  6
CONTINUOUS
 10
350.5676215799
 20
1044.896180553
 40
5.5
100
AcDbArc
 50
315.0
 51
135.0
  0
ARC
  5
4DD
100
AcDbEntity
  8
0
100
AcDbCircle
 62
7
  6
CONTINUOUS
 10
350.5322662408
 20
1044.860825214
 40
5.5
100
AcDbArc
 50
135.0
 51
315.0
  0
CIRCLE
  5
4DE
100
AcDbEntity
  8
BEZUGSACHSEN
100
AcDbCircle
 62
7
  6
CONTINUOUS
 10
1715.9624784384
 20
928.0197192583
 40
9.0
  0
CIRCLE
  5
4DF
100
AcDbEntity
  8
0
100
AcDbCircle
 62
7
  6
CONTINUOUS
 10
1715.9624784384
 20
928.0197192583
 40
8.0
  0
ARC
  5
4E0
100
AcDbEntity
  8
0
100
AcDbCircle
 62
2
  6
CONTINUOUS
 10
1728.8053088372
 20
915.8138376474
 40
6.0
100
AcDbArc
 50
255.0
 51
195.0
  0
CIRCLE
  5
4E1
100
AcDbEntity
  8
BEZUGSACHSEN
100
AcDbCircle
 62
7
  6
CONTINUOUS
 10
1728.8053088372
 20
915.8138376474
 40
5.1
  0
CIRCLE
  5
4E2
100
AcDbEntity
  8
BEZUGSACHSEN
100
AcDbCircle
 62
7
  6
CONTINUOUS
 10
1741.0111904481
 20
1070.0780242835
 40
9.0
  0
CIRCLE
  5
4E3
100
AcDbEntity
  8
0
100
AcDbCircle
 62
7
  6
CONTINUOUS
 10
1741.0111904481
 20
1070.0780242835
 40
8.0
  0
ARC
  5
4E4
100
AcDbEntity
  8
0
100
AcDbCircle
 62
2
  6
CONTINUOUS
 10
1728.8053088372
 20
1057.2351938847
 40
6.0
100
AcDbArc
 50
255.0
 51
195.0
  0
CIRCLE
  5
4E5
100
AcDbEntity
  8
BEZUGSACHSEN
100
AcDbCircle
 62
7
  6
CONTINUOUS
 10
1728.8053088372
 20
1057.2351938847
 40
5.1
  0
CIRCLE
  5
4E6
100
AcDbEntity
  8
BEZUGSACHSEN
100
AcDbCircle
 62
7
  6
CONTINUOUS
 10
1858.0207834637
 20
902.9710072486
 40
9.0
  0
CIRCLE
  5
4E7
100
AcDbEntity
  8
0
100
AcDbCircle
 62
7
  6
CONTINUOUS
 10
1858.0207834637
 20
902.9710072486
 40
8.0
  0
ARC
  5
4E8
100
AcDbEntity
  8
0
100
AcDbCircle
 62
2
  6
CONTINUOUS
 10
1870.2266650745
 20
915.8138376474
 40
6.0
100
AcDbArc
 50
255.0
 51
195.0
  0
CIRCLE
  5
4E9
100
AcDbEntity
  8
BEZUGSACHSEN
100
AcDbCircle
 62
7
  6
CONTINUOUS
 10
1870.2266650745
 20
915.8138376474
 40
5.1
  0
ARC
  5
4EA
100
AcDbEntity
  8
0
100
AcDbCircle
 62
7
  6
CONTINUOUS
 10
1799.5159869559
 20
986.5245157661
 40
120.0
100
AcDbArc
 50
127.6584620062
 51
142.3415379938
  0
ARC
  5
4EB
100
AcDbEntity
  8
0
100
AcDbCircle
 62
7
  6
CONTINUOUS
 10
1799.5159869559
 20
986.5245157661
 40
120.0
100
AcDbArc
 50
37.6584620062
 51
52.3415379938
  0
ARC
  5
4EC
100
AcDbEntity
  8
0
100
AcDbCircle
 62
7
  6
CONTINUOUS
 10
1799.5159869559
 20
986.5245157661
 40
120.0
100
AcDbArc
 50
307.6584620062
 51
322.3415379938
  0
ARC
  5
4ED
100
AcDbEntity
  8
0
100
AcDbCircle
 62
7
  6
CONTINUOUS
 10
1799.5159869559
 20
986.5245157661
 40
120.0
100
AcDbArc
 50
217.6584620062
 51
232.3415379938
  0
CIRCLE
  5
4EE
100
AcDbEntity
  8
ANSICHT_3D
100
AcDbCircle
 62
2
  6
CENTER
 10
1799.5159869559
 20
986.5245157661
 40
100.0
  0
CIRCLE
  5
4EF
100
AcDbEntity
  8
0
100
AcDbCircle
 62
7
  6
CONTINUOUS
 10
1799.5159869559
 20
986.5245157661
 40
57.15
  0
CIRCLE
  5
4F0
100
AcDbEntity
  8
0
100
AcDbCircle
 62
7
  6
CONTINUOUS
 10
1799.5159869559
 20
986.5245157661
 40
50.0
  0
ARC
  5
4F1
100
AcDbEntity
  8
0
100
AcDbCircle
 62
7
  6
CONTINUOUS
 10
1799.5159869559
 20
986.5245157661
 40
45.0
100
AcDbArc
 50
304.1119903409
 51
301.9992511253
  0
ARC
  5
4F2
100
AcDbEntity
  8
0
100
AcDbCircle
 62
7
  6
CONTINUOUS
 10
1799.5159869559
 20
986.5245157661
 40
40.0
100
AcDbArc
 50
271.0743588229
 51
268.9256411771
  0
ARC
  5
4F3
100
AcDbEntity
  8
0
100
AcDbCircle
 62
7
  6
CONTINUOUS
 10
1799.5159869559
 20
986.5245157661
 40
30.5
100
AcDbArc
 50
268.5909453611
 51
271.4090546389
  0
CIRCLE
  5
4F4
100
AcDbEntity
  8
0
100
AcDbCircle
 62
7
  6
CONTINUOUS
 10
1799.5159869559
 20
986.5245157661
 40
21.0
  0
CIRCLE
  5
4F5
100
AcDbEntity
  8
BEZUGSACHSEN
100
AcDbCircle
 62
7
  6
CONTINUOUS
 10
1883.0694954734
 20
1045.0293122739
 40
9.0
  0
CIRCLE
  5
4F6
100
AcDbEntity
  8
0
100
AcDbCircle
 62
7
  6
CONTINUOUS
 10
1883.0694954734
 20
1045.0293122739
 40
8.0
  0
ARC
  5
4F7
100
AcDbEntity
  8
0
100
AcDbCircle
 62
2
  6
CONTINUOUS
 10
1870.2266650745
 20
1057.2351938847
 40
6.0
100
AcDbArc
 50
255.0
 51
195.0
  0
CIRCLE
  5
4F8
100
AcDbEntity
  8
BEZUGSACHSEN
100
AcDbCircle
 62
7
  6
CONTINUOUS
 10
1870.2266650745
 20
1057.2351938847
 40
5.1
  0
SPLINE
  5
4F9
100
AcDbEntity
  8
0
100
AcDbSpline
 62
7
  6
CONTINUOUS
 70
0
 71
3
 72
11
 73
7
 74
0
 42
0.0000001
 43
0.0000001
 44
0.0000000001
 40
0.0
 40
0.0
 40
0.0
 40
0.0
 40
0.2503108187
 40
0.5005821723
 40
0.7506482478
 40
1.0
 40
1.0
 40
1.0
 40
1.0
 10
999.0793319903
 20
989.6063171873
 30
0.0
 10
999.0793319903
 20
995.6083716478
 30
0.0
 10
999.104863827
 20
1007.6092429215
 30
0.0
 10
998.5377807423
 20
1025.6179513404
 30
0.0
 10
995.9585986311
 20
1043.4532202762
 30
0.0
 10
991.4683143525
 20
1054.8325442354
 30
0.0
 10
988.1734845541
 20
1059.8218554177
 30
0.0
  0
SPLINE
  5
4FA
100
AcDbEntity
  8
0
100
AcDbSpline
 62
7
  6
CONTINUOUS
 70
0
 71
3
 72
13
 73
9
 74
0
 42
0.0000001
 43
0.0000001
 44
0.0000000001
 40
0.0
 40
0.0
 40
0.0
 40
0.0
 40
0.1248970843
 40
0.2498602269
 40
0.3748923259
 40
0.4999499815
 40
0.749922235
 40
1.0
 40
1.0
 40
1.0
 40
1.0
 10
1035.0793319903
 20
986.5245157661
 30
0.0
 10
1035.0793319903
 20
984.4004952213
 30
0.0
 10
1034.5405414199
 20
980.1355276773
 30
0.0
 10
1032.3270593975
 20
974.1135293351
 30
0.0
 10
1029.1093449865
 20
968.5785872025
 30
0.0
 10
1023.9192694015
 20
961.8216069665
 30
0.0
 10
1016.3102925521
 20
954.3377350418
 30
0.0
 10
1009.6473246758
 20
949.041548859
 30
0.0
 10
1006.230819086
 20
946.5088938166
 30
0.0
  0
SPLINE
  5
4FB
100
AcDbEntity
  8
0
100
AcDbSpline
 62
7
  6
CONTINUOUS
 70
0
 71
3
 72
10
 73
6
 74
0
 42
0.0000001
 43
0.0000001
 44
0.0000000001
 40
0.0
 40
0.0
 40
0.0
 40
0.0
 40
0.7014980509
 40
0.9212482854
 40
1.0
 40
1.0
 40
1.0
 40
1.0
 10
1186.5793319903
 20
1005.6032997944
 30
0.0
 10
1188.0019048438
 20
1005.6032997944
 30
0.0
 10
1189.8742126648
 20
1005.8302698109
 30
0.0
 10
1191.8471174704
 20
1006.3018239903
 30
0.0
 10
1192.4245533948
 20
1006.4849575417
 30
0.0
 10
1192.5792878281
 20
1006.5244760839
 30
0.0
  0
SPLINE
  5
4FC
100
AcDbEntity
  8
0
100
AcDbSpline
 62
7
  6
CONTINUOUS
 70
0
 71
3
 72
12
 73
8
 74
0
 42
0.0000001
 43
0.0000001
 44
0.0000000001
 40
0.0
 40
0.0
 40
0.0
 40
0.0
 40
0.2980903064
 40
0.4492912476
 40
0.6208640278
 40
0.8067277698
 40
1.0
 40
1.0
 40
1.0
 40
1.0
 10
1127.5793761524
 20
1006.524476084
 30
0.0
 10
1126.9923182031
 20
1006.6716958813
 30
0.0
 10
1129.3080969184
 20
1006.0471227394
 30
0.0
 10
1130.2224608813
 20
1005.8945315612
 30
0.0
 10
1131.3207495003
 20
1005.7236935734
 30
0.0
 10
1132.4113823413
 20
1005.628643595
 30
0.0
 10
1133.1869162586
 20
1005.6032997944
 30
0.0
 10
1133.5793319903
 20
1005.6032997944
 30
0.0
  0
SPLINE
  5
4FD
100
AcDbEntity
  8
0
100
AcDbSpline
 62
7
  6
CONTINUOUS
 70
0
 71
3
 72
13
 73
9
 74
0
 42
0.0000001
 43
0.0000001
 44
0.0000000001
 40
0.0
 40
0.0
 40
0.0
 40
0.0
 40
0.2500777854
 40
0.500050127
 40
0.62510788
 40
0.7501400955
 40
0.8751032407
 40
1.0
 40
1.0
 40
1.0
 40
1.0
 10
1006.230819086
 20
1026.5401377155
 30
0.0
 10
1009.6473249455
 20
1024.0074824733
 30
0.0
 10
1016.3102940963
 20
1018.711294997
 30
0.0
 10
1023.9192733704
 20
1011.2274204441
 30
0.0
 10
1029.1093509204
 20
1004.4704352844
 30
0.0
 10
1032.3270662228
 20
998.93548924
 30
0.0
 10
1034.5405426456
 20
992.9134925636
 30
0.0
 10
1035.0793319903
 20
988.6485307787
 30
0.0
 10
1035.0793319903
 20
986.5245157661
 30
0.0
  0
SPLINE
  5
4FE
100
AcDbEntity
  8
0
100
AcDbSpline
 62
7
  6
CONTINUOUS
 70
0
 71
3
 72
11
 73
7
 74
0
 42
0.0000001
 43
0.0000001
 44
0.0000000001
 40
0.0
 40
0.0
 40
0.0
 40
0.0
 40
0.2493524875
 40
0.4994185614
 40
0.7496894869
 40
1.0
 40
1.0
 40
1.0
 40
1.0
 10
988.1734845541
 20
913.2271761145
 30
0.0
 10
991.4683240184
 20
918.2165019337
 30
0.0
 10
995.9586110061
 20
929.5958455589
 30
0.0
 10
998.5377773326
 20
947.431123588
 30
0.0
 10
999.1048562749
 20
965.4398137569
 30
0.0
 10
999.0793319903
 20
977.4406673024
 30
0.0
 10
999.0793319903
 20
983.4427143448
 30
0.0
  0
ENDSEC
  0
SECTION
  2
OBJECTS
  0
DICTIONARY
  5
C
100
AcDbDictionary
280
0
281
1
  3
ACAD_GROUP
350
D
  3
ACAD_MLINESTYLE
350
17
  3
ACAD_LAYOUT
350
1A
  3
ACAD_PLOTSETTINGS
350
19
  3
ACAD_PLOTSTYLENAME
350
E
  0
DICTIONARY
  5
D
102
{ACAD_REACTORS
330
C
102
}
100
AcDbDictionary
280
0
281
1
  0
ACDBDICTIONARYWDFLT
  5
E
102
{ACAD_REACTORS
330
C
102
}
100
AcDbDictionary
281
1
  3
Normal
350
F
100
AcDbDictionaryWithDefault
340
F
  0
DICTIONARY
  5
17
102
{ACAD_REACTORS
330
C
102
}
100
AcDbDictionary
280
0
281
1
  3
Standard
350
18
  0
DICTIONARY
  5
19
102
{ACAD_REACTORS
330
C
102
}
100
AcDbDictionary
281
1
  0
DICTIONARY
  5
1A
102
{ACAD_REACTORS
330
C
102
}
100
AcDbDictionary
281
1
  3
Model
350
4FF
  3
Layout1
350
500
  0
ACDBPLACEHOLDER
  5
F
102
{ACAD_REACTORS
330
E
102
}
  0
MLINESTYLE
  5
18
102
{ACAD_REACTORS
330
17
102
}
100
AcDbMlineStyle
  2
STANDARD
 70
0
  3

 62
256
 51
90.0
 52
90.0
 71
2
 49
0.5
 62
256
  6
BYLAYER
 49
-0.5
 62
256
  6
BYLAYER
  0
LAYOUT
  5
4FF
102
{ACAD_REACTORS
330
1A
102
}
100
AcDbPlotSettings
  1

  2
none_device
  4
ISO_A3_(420.00_x_297.00_MM)
  6

 40
0.0
 41
0.0
 42
0.0
 43
0.0
 44
420.0
 45
297.0
 46
0.0
 47
0.0
 48
0.0
 49
0.0
140
0.0
141
0.0
142
1.0
143
1.0
 70
1024
 72
1
 73
0
 74
0
  7

 75
0
147
1.0
148
0.0
149
0.0
100
AcDbLayout
  1
Model
 70
0
 71
0
 10
0.0
 20
0.0
 11
420.0
 21
297.0
 12
0.0
 22
0.0
 32
0.0
 14
0.0
 24
0.0
 34
0.0
 15
0.0
 25
0.0
 35
0.0
146
0.0
 13
0.0
 23
0.0
 33
0.0
 16
1.0
 26
0.0
 36
0.0
 17
0.0
 27
1.0
 37
0.0
 76
0
330
21A
345
0
346
0
  0
LAYOUT
  5
500
102
{ACAD_REACTORS
330
1A
102
}
100
AcDbPlotSettings
  1

  2
none_device
  4
ISO_A3_(420.00_x_297.00_MM)
  6

 40
0.0
 41
0.0
 42
0.0
 43
0.0
 44
420.0
 45
297.0
 46
0.0
 47
0.0
 48
0.0
 49
0.0
140
0.0
141
0.0
142
1.0
143
1.0
 70
0
 72
1
 73
0
 74
0
  7

 75
0
147
1.0
148
0.0
149
0.0
100
AcDbLayout
  1
Layout1
 70
0
 71
1
 10
0.0
 20
0.0
 11
420.0
 21
297.0
 12
0.0
 22
0.0
 32
0.0
 14
0.0
 24
0.0
 34
0.0
 15
0.0
 25
0.0
 35
0.0
146
0.0
 13
0.0
 23
0.0
 33
0.0
 16
1.0
 26
0.0
 36
0.0
 17
0.0
 27
1.0
 37
0.0
 76
0
330
21B
345
0
346
0
  0
ENDSEC
  0
EOF
